<?xml version="1.0" standalone="no"?>
<!DOCTYPE svg PUBLIC "-//W3C//DTD SVG 1.1//EN" "http://www.w3.org/Graphics/SVG/1.1/DTD/svg11.dtd" >
<svg xmlns="http://www.w3.org/2000/svg">
<metadata></metadata>
<defs>
<font id="typoninesansmedium" horiz-adv-x="522" >
<font-face units-per-em="2048" ascent="1597" descent="-451" />
<missing-glyph horiz-adv-x="450" />
<glyph unicode="&#xfb01;" horiz-adv-x="1183" d="M47 776v180l152 17v67q0 104 39.5 181t108 119.5t149 62.5t174.5 20q176 0 338 -51l-47 -227q-47 27 -121.5 51.5t-147.5 24.5q-123 0 -178 -42t-55 -147v-59h602v-973h-260v780h-342v-780h-260v776h-152z" />
<glyph unicode="&#xfb02;" horiz-adv-x="1191" d="M47 776v180l152 17v67q0 104 39.5 181t108 119.5t149 62.5t174.5 20t207 -20h184v-1403h-260v1219q-78 20 -142 20q-200 0 -200 -190v-76h221v-193h-221v-780h-260v776h-152z" />
<glyph unicode="&#xfb03;" horiz-adv-x="1785" d="M47 776v180l152 17v41q0 100 40 176.5t108 120t148.5 65t170.5 21.5q131 0 278 -60q124 86 328 86q180 0 338 -51l-47 -227q-47 27 -121.5 51.5t-147.5 24.5q-123 0 -177 -42t-54 -147v-59h600v-973h-260v780h-340v-780h-262v780h-342v-780h-260v776h-152zM459 973h342 v67q0 54 14 115q-79 47 -172 47q-83 0 -133.5 -48t-50.5 -150v-31z" />
<glyph unicode="&#xfb04;" horiz-adv-x="1792" d="M47 776v180l152 17v41q0 100 40 176.5t108 120t148.5 65t170.5 21.5q132 0 278 -58q125 84 328 84q95 0 205 -20h184v-1403h-260v1219q-78 20 -139 20q-201 0 -201 -190v-76h219v-193h-219v-780h-260v780h-342v-780h-260v776h-152zM459 973h342v67q0 54 14 115 q-79 47 -172 47q-83 0 -133.5 -48t-50.5 -150v-31z" />
<glyph horiz-adv-x="0" />
<glyph horiz-adv-x="682" />
<glyph unicode=" "  horiz-adv-x="450" />
<glyph unicode="&#x09;" horiz-adv-x="450" />
<glyph unicode="&#xa0;" horiz-adv-x="450" />
<glyph unicode="!" horiz-adv-x="593" d="M141 125q0 67 42 106t114 39q70 0 114 -37t44 -108q0 -70 -41.5 -109t-116.5 -39q-77 0 -116.5 38.5t-39.5 109.5zM176 881v450h242v-450l-25 -410h-192z" />
<glyph unicode="&#x22;" horiz-adv-x="819" d="M76 1331h270l-47 -555h-176zM473 1331h270l-47 -555h-176z" />
<glyph unicode="#" horiz-adv-x="1255" d="M57 291l33 153h174l45 244h-190l31 156h190l53 284h207l-53 -284h256l53 284h209l-53 -284h186l-33 -156h-184l-45 -244h203l-33 -153h-199l-55 -291h-209l55 291h-256l-53 -291h-209l56 291h-179zM471 444h256l45 244h-254z" />
<glyph unicode="$" horiz-adv-x="1007" d="M63 139l74 193q68 -46 153.5 -78.5t155.5 -36.5v375q-46 21 -65 29.5t-61.5 29.5t-62.5 35t-52.5 37t-49 44.5t-34.5 49.5t-25.5 59.5t-7.5 67.5q0 133 98.5 223t259.5 107v112h123v-110q173 -6 322 -82l-66 -201q-50 37 -119.5 65t-136.5 34v-322q46 -19 76 -32.5 t73.5 -36.5t72 -43.5t60 -51t50 -62.5t31 -74.5t12.5 -90.5q0 -139 -103.5 -228t-271.5 -110v-102h-123v96q-224 4 -383 104zM317 965q0 -44 33 -78t96 -64v262q-129 -24 -129 -120zM569 225q69 14 108.5 47.5t39.5 85.5q0 56 -38.5 97.5t-109.5 79.5v-310z" />
<glyph unicode="%" horiz-adv-x="1546" d="M59 1006q0 153 94.5 248.5t254.5 95.5q164 0 252 -88t88 -256q0 -145 -94 -243.5t-253 -98.5q-161 0 -251.5 89t-90.5 253zM262 1006q0 -88 32 -132.5t112 -44.5q78 0 108.5 44t30.5 133q0 83 -31 129.5t-108 46.5q-80 0 -112 -45t-32 -131zM301 195l813 1042l123 -94 l-807 -1034zM788 322q0 153 94.5 248.5t254.5 95.5q164 0 252 -88t88 -256q0 -145 -94 -243.5t-253 -98.5q-161 0 -251.5 89t-90.5 253zM991 322q0 -88 31.5 -132.5t110.5 -44.5t110 44t31 133q0 83 -31.5 129.5t-109.5 46.5q-80 0 -111 -44.5t-31 -131.5z" />
<glyph unicode="&#x26;" horiz-adv-x="1533" d="M66 332q0 133 93.5 235t258.5 146q-49 159 -49 291q0 154 95.5 250t268.5 96q46 0 89.5 -8t89 -29.5t79 -54.5t55 -87t21.5 -122q0 -75 -31 -144.5t-84 -121.5t-117 -90.5t-135 -61.5q82 -199 166 -271q77 132 90 310h457v-187h-295q-37 -124 -129 -235q88 -65 199 -68 q53 0 112.5 31.5t98.5 81.5l86 -182q-62 -63 -146.5 -97t-173.5 -34q-87 0 -189 32t-173 82q-70 -54 -163.5 -84t-188.5 -30q-164 0 -274.5 97t-110.5 255zM311 362q0 -81 49.5 -129.5t128.5 -48.5q103 0 177 52q-124 139 -199 333q-156 -63 -156 -207zM610 1034 q0 -112 37 -250q92 30 138 83.5t46 150.5q0 72 -27.5 110.5t-78.5 38.5q-49 0 -82 -34t-33 -99z" />
<glyph unicode="'" horiz-adv-x="421" d="M76 1331h270l-49 -555h-174z" />
<glyph unicode="(" horiz-adv-x="731" d="M55 541q0 284 130 529.5t362 420.5l149 -145q-180 -150 -286.5 -348.5t-106.5 -442.5q0 -257 103 -450.5t290 -356.5l-131 -137q-245 170 -377.5 414t-132.5 516z" />
<glyph unicode=")" horiz-adv-x="733" d="M35 -252q90 79 157.5 159.5t123.5 179t85 217t29 251.5q0 243 -107.5 442t-287.5 349l149 145q232 -175 362 -421.5t130 -528.5q0 -273 -132 -516t-378 -414z" />
<glyph unicode="*" horiz-adv-x="804" d="M49 924l260 77q0 -36 27 -59l-168 -197zM49 1083l117 179l182 -187q-34 -14 -41 -61zM291 690l59 242q17 -10 41 -10t41 10l74 -242h-215zM291 1319h215l-76 -240q-18 11 -37 11q-5 0 -33 -7zM440 1073l195 187l119 -175l-277 -69q-6 33 -37 57zM444 940q30 20 33 57 l277 -75l-119 -174z" />
<glyph unicode="+" horiz-adv-x="995" d="M68 496v172h331v317h197v-317h332v-172h-332v-322h-197v322h-331z" />
<glyph unicode="," horiz-adv-x="446" d="M-8 -233q66 114 93.5 223.5t29.5 240.5h233q-1 -129 -56 -267t-138 -249z" />
<glyph unicode="-" horiz-adv-x="831" d="M135 412v217h561v-217h-561z" />
<glyph unicode="." horiz-adv-x="475" d="M80 125q0 67 43 106t115 39q69 0 113 -37t44 -108t-41 -109.5t-116 -38.5q-77 0 -117.5 38.5t-40.5 109.5z" />
<glyph unicode="/" horiz-adv-x="919" d="M35 -66l649 1471h199l-643 -1471h-205z" />
<glyph unicode="0" horiz-adv-x="1243" d="M102 639q0 130 16.5 235t55 195.5t98.5 151t151 95t208 34.5q264 0 386 -168t122 -488q0 -120 -13 -218.5t-49 -193.5t-94 -159t-152.5 -103.5t-220.5 -39.5q-257 0 -382.5 160t-125.5 499zM367 680q0 -80 3 -137.5t12.5 -117.5t27 -99.5t45.5 -72t70.5 -48t99.5 -15.5 q61 0 105.5 24t71.5 64t43 104t21.5 132t5.5 160q0 72 -3 123t-11.5 108.5t-26 96t-45.5 72t-71 49.5t-101 16q-72 0 -122 -34.5t-76.5 -100t-37.5 -143.5t-11 -181z" />
<glyph unicode="1" horiz-adv-x="727" d="M35 1108v215l528 27v-1350h-258v1120z" />
<glyph unicode="2" horiz-adv-x="1075" d="M70 0v164q90 58 192 151t194.5 201t153 225t60.5 207q0 87 -49 139t-136 52q-69 0 -137.5 -39.5t-122.5 -102.5l-125 172q11 13 30.5 30.5t61.5 45.5t89.5 50t117 38.5t142.5 16.5q180 0 288.5 -100.5t108.5 -272.5q0 -96 -48.5 -205t-129.5 -209t-174 -187t-193 -157 h602v-219h-925z" />
<glyph unicode="3" horiz-adv-x="1056" d="M53 117l129 207q144 -129 312 -129q91 0 152 44t61 126q0 77 -59 130.5t-153 78.5t-219 28v164q155 9 264 71.5t109 153.5q0 70 -51 108t-129 38q-139 0 -254 -111l-111 172q6 6 18 16.5t53 36.5t87 46t118.5 36.5t149.5 16.5q169 0 277 -92.5t108 -231.5 q0 -111 -75.5 -190.5t-202.5 -114.5q155 -33 244.5 -126.5t89.5 -234.5q0 -54 -16 -106.5t-54 -102.5t-93 -87.5t-140 -60.5t-189 -23q-140 0 -254 43.5t-172 93.5z" />
<glyph unicode="4" horiz-adv-x="1134" d="M43 285v153l586 893h260v-839h184v-207h-184v-283h-256v283h-590zM293 494h340v520z" />
<glyph unicode="5" horiz-adv-x="1058" d="M61 121l121 205q133 -136 291 -136q90 0 158.5 52.5t68.5 142.5q0 137 -122 198.5t-410 61.5v686h764v-221h-520v-270q139 -1 246.5 -34t173.5 -92.5t99.5 -138.5t33.5 -174q0 -82 -31 -156t-91 -134t-158 -95.5t-222 -35.5q-229 0 -402 141z" />
<glyph unicode="6" horiz-adv-x="1118" d="M92 616q0 349 185 541.5t501 192.5q87 0 195 -19v-225q-99 22 -189 22q-82 0 -151 -19.5t-127 -61.5t-95.5 -114t-48.5 -169q138 74 256 74q189 0 299.5 -102.5t110.5 -289.5q0 -216 -120 -341t-339 -125q-105 0 -185.5 29t-135.5 82t-90 132.5t-50.5 176t-15.5 216.5z M356 561q0 -90 10 -153.5t34.5 -115t70.5 -77t115 -25.5q94 0 138 66.5t44 163.5q0 108 -50.5 156.5t-152.5 48.5q-68 0 -123.5 -21t-85.5 -43z" />
<glyph unicode="7" horiz-adv-x="993" d="M47 1110v221h918v-143l-539 -1186h-256l506 1108h-629z" />
<glyph unicode="8" horiz-adv-x="1124" d="M88 326q0 60 25.5 115t70 100t94 79.5t107.5 63.5q-65 40 -103 68t-77.5 68.5t-57.5 87.5t-18 106q0 144 131.5 240t310.5 96q188 0 306 -91.5t118 -234.5q0 -157 -268 -313q313 -155 313 -357q0 -163 -137 -268.5t-344 -105.5q-205 0 -338 91t-133 255zM350 344 q0 -86 61 -133t164 -47q92 0 147.5 49t55.5 129q0 34 -19 67.5t-57.5 65t-71.5 54t-85 53.5q-195 -120 -195 -238zM389 1026q0 -58 38 -100.5t140 -110.5q83 61 124.5 107.5t41.5 93.5q0 68 -46.5 104.5t-121.5 36.5q-85 0 -130.5 -37.5t-45.5 -93.5z" />
<glyph unicode="9" horiz-adv-x="1118" d="M90 883q0 216 120 341.5t339 125.5q130 0 223.5 -44t148.5 -129t80 -199t25 -265q0 -349 -185 -541t-501 -192q-93 0 -195 18v225q99 -22 189 -22q82 0 151 19.5t127 61.5t95.5 114t48.5 169q-136 -73 -256 -73q-189 0 -299.5 102t-110.5 289zM350 909q0 -108 50.5 -156 t152.5 -48q68 0 123.5 20.5t85.5 42.5q0 90 -10 153.5t-34.5 115t-70.5 77t-115 25.5q-94 0 -138 -66.5t-44 -163.5z" />
<glyph unicode=":" horiz-adv-x="593" d="M141 125q0 67 42 106t114 39q70 0 114 -37t44 -108q0 -70 -41.5 -109t-116.5 -39q-77 0 -116.5 38.5t-39.5 109.5zM141 784q0 69 42 108.5t114 39.5q70 0 114 -38t44 -110q0 -70 -41.5 -107.5t-116.5 -37.5q-156 0 -156 145z" />
<glyph unicode=";" horiz-adv-x="538" d="M35 -233q66 114 93.5 223.5t29.5 240.5h233q-1 -129 -56 -267t-138 -249zM115 784q0 69 41.5 108.5t113.5 39.5q71 0 114.5 -38t43.5 -110q0 -70 -41.5 -107.5t-116.5 -37.5q-155 0 -155 145z" />
<glyph unicode="&#x3c;" horiz-adv-x="952" d="M74 506v162l671 465l125 -177l-542 -368l536 -395l-123 -173z" />
<glyph unicode="=" horiz-adv-x="1169" d="M150 311v181h872v-181h-872zM150 682v180h872v-180h-872z" />
<glyph unicode="&#x3e;" horiz-adv-x="952" d="M80 956l127 177l672 -465v-162l-668 -486l-125 173l537 395z" />
<glyph unicode="?" horiz-adv-x="903" d="M35 1212q170 138 409 138q113 0 203.5 -32.5t147 -101.5t57.5 -165q0 -71 -39 -130.5t-94 -100t-110.5 -77t-94.5 -80t-39 -90.5q0 -46 45 -106l-252 -64q-41 92 -41 172q0 50 25.5 97.5t63.5 82.5t82 72t82 68t63.5 68.5t25.5 74.5q0 55 -44.5 84t-116.5 29 q-157 0 -269 -109zM258 125q0 67 42 106t114 39q71 0 114 -37t43 -108t-40.5 -109.5t-116.5 -38.5t-116 38.5t-40 109.5z" />
<glyph unicode="@" horiz-adv-x="1701" d="M59 416q0 180 64 331.5t174 254t261 160t323 57.5q170 0 311.5 -56.5t234 -152t143 -219t50.5 -259.5q0 -72 -15 -144t-48 -140.5t-79.5 -121t-114.5 -84.5t-149 -32q-89 0 -156.5 39.5t-80.5 102.5q-97 -142 -266 -142q-125 0 -202 67.5t-77 190.5q0 64 27 113.5 t69.5 78.5t103 47.5t119 25t126.5 6.5q57 0 86 -2l2 69q0 81 -33 113.5t-103 32.5q-53 0 -94 -21t-41 -67q0 -13 6 -31l-200 -29q-15 51 -15 76q0 108 104.5 178t260.5 70q346 0 346 -310l-2 -405q0 -39 19 -60.5t51 -21.5q62 0 110.5 55.5t73.5 142.5t25 187 q0 163 -69 292.5t-205.5 206.5t-321.5 77q-300 0 -485 -180.5t-185 -501.5q0 -154 51 -277.5t139.5 -202t205 -120t249.5 -41.5q259 0 481 165l64 -102q-124 -89 -265 -139.5t-280 -50.5q-120 0 -232.5 28t-215 89.5t-179 150t-121.5 219t-45 287.5zM672 285q0 -51 31.5 -76 t78.5 -25q100 0 181 99v116q-51 7 -93 7q-198 0 -198 -121z" />
<glyph unicode="A" horiz-adv-x="1224" d="M-2 0l467 1331h293l471 -1331h-281l-102 305h-481l-97 -305h-270zM432 514h344l-59 176l-117 383l-115 -391z" />
<glyph unicode="B" horiz-adv-x="1214" d="M156 0v1331h467q117 0 201 -25t131 -70.5t68 -101t21 -124.5q0 -219 -210 -293v-4q87 -11 150.5 -43t96.5 -77t47.5 -92.5t14.5 -99.5q0 -195 -116 -298t-329 -103h-542zM422 223h223q118 0 170.5 42t52.5 138q0 98 -62.5 142.5t-189.5 44.5h-194v-367zM422 793h139 q209 0 209 172q0 147 -195 147h-153v-319z" />
<glyph unicode="C" horiz-adv-x="1200" d="M76 659q0 214 86.5 372t236 238.5t342.5 80.5q105 0 211 -26t183 -73l-88 -239q-152 118 -318 118q-174 0 -272.5 -119t-98.5 -345q0 -233 95 -351t280 -118q91 0 182 31.5t162 80.5l68 -225q-195 -104 -438 -104q-304 0 -467.5 170.5t-163.5 508.5z" />
<glyph unicode="D" horiz-adv-x="1394" d="M156 0v1331h487q178 0 309 -47t209 -134t115 -202t37 -260q0 -123 -18 -221.5t-64 -188t-120.5 -149t-193 -94.5t-276.5 -35h-485zM422 223h235q91 0 158 21t108 56.5t65 91.5t33 116.5t9 140.5q0 84 -10.5 150t-37.5 126.5t-70.5 100t-113 63t-161.5 23.5h-215v-889z " />
<glyph unicode="E" horiz-adv-x="1116" d="M156 0v1331h864v-219h-598v-324h536v-217h-536v-348h596v-223h-862z" />
<glyph unicode="F" horiz-adv-x="1050" d="M156 0v1331h835v-219h-569v-387h514v-217h-514v-508h-266z" />
<glyph unicode="G" horiz-adv-x="1275" d="M76 666q0 137 35.5 250.5t98 193t149 134.5t188 80.5t215.5 25.5q215 0 403 -101l-90 -243q-152 124 -323 124q-185 0 -290.5 -111.5t-105.5 -348.5q0 -103 20 -183.5t56 -134.5t87 -89t110.5 -50.5t130.5 -15.5q82 0 155 24v438h263v-550q-99 -59 -224.5 -94t-242.5 -35 q-296 0 -465.5 173t-169.5 513z" />
<glyph unicode="H" horiz-adv-x="1394" d="M156 0v1331h266v-540h553v540h264v-1331h-264v559h-553v-559h-266z" />
<glyph unicode="I" horiz-adv-x="577" d="M156 0v1331h266v-1331h-266z" />
<glyph unicode="J" horiz-adv-x="577" d="M-100 -115q61 14 102 30.5t80 46t58.5 78t19.5 116.5v1175h264v-1208q0 -188 -120.5 -306.5t-328.5 -158.5z" />
<glyph unicode="K" horiz-adv-x="1216" d="M156 0v1331h266v-567l98 31l361 536h297l-449 -637l496 -694h-326l-397 567l-80 -18v-549h-266z" />
<glyph unicode="L" horiz-adv-x="983" d="M156 0v1331h266v-1108h547v-223h-813z" />
<glyph unicode="M" horiz-adv-x="1736" d="M156 0v1331h319l221 -559l185 -526l178 530l217 557h305v-1333h-248v903l-133 -403l-182 -500h-291l-184 481l-146 414l2 -389v-506h-243z" />
<glyph unicode="N" horiz-adv-x="1474" d="M156 0v1331h284l387 -561l246 -373l-2 365v569h248v-1331h-268l-392 571l-253 387l2 -395v-563h-252z" />
<glyph unicode="O" horiz-adv-x="1437" d="M76 655q0 200 76.5 357t223 247.5t339.5 90.5q146 0 263 -40t203.5 -122t133.5 -214.5t47 -309.5q0 -146 -44.5 -271t-126.5 -217t-205 -144t-273 -52q-294 0 -465.5 177t-171.5 498zM356 655q0 -226 86 -341t271 -115q186 0 277 115t91 350q0 249 -87.5 357.5 t-278.5 108.5q-185 0 -272 -113.5t-87 -361.5z" />
<glyph unicode="P" horiz-adv-x="1150" d="M156 0v1331h462q255 0 373.5 -118.5t118.5 -325.5q0 -213 -131 -338t-369 -125h-188v-424h-266zM422 643h180q112 0 169.5 55.5t57.5 178.5q0 114 -52 174.5t-183 60.5h-172v-469z" />
<glyph unicode="Q" horiz-adv-x="1439" d="M76 655q0 200 76.5 357t223 247.5t339.5 90.5q146 0 263 -40t203.5 -122t133.5 -214.5t47 -309.5q0 -207 -87.5 -368.5t-246.5 -244.5l332 -344l-215 -141l-320 422q-74 -8 -112 -8q-294 0 -465.5 177t-171.5 498zM356 655q0 -226 86 -341t271 -115q186 0 277 115t91 350 q0 249 -87.5 357.5t-278.5 108.5q-185 0 -272 -113.5t-87 -361.5z" />
<glyph unicode="R" horiz-adv-x="1226" d="M156 0v1331h452q492 0 492 -430q0 -134 -57 -233.5t-166 -153.5l309 -514h-314l-256 459h-194v-459h-266zM422 676h168q229 0 229 221q0 114 -53 164.5t-182 50.5h-162v-436z" />
<glyph unicode="S" horiz-adv-x="1054" d="M63 100l89 244q69 -63 165.5 -105t174.5 -42q89 0 154 37.5t65 111.5q0 47 -27 86t-70.5 64.5t-99.5 53t-114.5 51.5t-114.5 59t-99.5 76t-70.5 103.5t-27 139.5q0 162 127 266.5t322 104.5q216 0 399 -101l-74 -245q-49 50 -135.5 88t-167.5 38q-89 0 -138.5 -34.5 t-49.5 -100.5q0 -42 26.5 -76.5t70 -57t99.5 -48t114 -48.5t114 -60t99.5 -80.5t70 -112t26.5 -152.5q0 -175 -142.5 -277.5t-359.5 -102.5q-243 0 -426 120z" />
<glyph unicode="T" horiz-adv-x="1103" d="M16 1112v219h1069v-219h-401v-1112h-264v1112h-404z" />
<glyph unicode="U" horiz-adv-x="1402" d="M139 467v864h267v-819q0 -179 71 -247t228 -68q151 0 226 74.5t75 244.5v815h256v-858q0 -105 -31.5 -189.5t-84.5 -140t-126.5 -93t-154.5 -54t-171 -16.5q-93 0 -172.5 14.5t-151.5 50t-122 90.5t-79.5 139.5t-29.5 192.5z" />
<glyph unicode="V" horiz-adv-x="1185" d="M-4 1331h276l222 -680l110 -422l109 422l198 680h273l-430 -1331h-312z" />
<glyph unicode="W" horiz-adv-x="1796" d="M39 1331h270l137 -665l72 -439l82 435l145 649h318l151 -637l86 -447l78 453l115 651h256l-285 -1331h-352l-121 504l-98 518l-94 -522l-117 -500h-340z" />
<glyph unicode="X" horiz-adv-x="1173" d="M10 0l430 690l-397 641h303l252 -440l254 440h266l-389 -629l442 -702h-303l-290 496l-295 -496h-273z" />
<glyph unicode="Y" horiz-adv-x="1095" d="M-18 1331h286l150 -299l147 -299l275 598h264l-418 -811v-520h-264v514z" />
<glyph unicode="Z" horiz-adv-x="1114" d="M57 0v176l424 606l240 330h-623v219h930v-192l-395 -566l-260 -354h671v-219h-987z" />
<glyph unicode="[" horiz-adv-x="641" d="M133 -354v1865h469v-170h-248v-1531h248v-164h-469z" />
<glyph unicode="\" horiz-adv-x="919" d="M37 1405h199l647 -1471h-205z" />
<glyph unicode="]" horiz-adv-x="641" d="M39 -190h250v1531h-250v170h471v-1865h-471v164z" />
<glyph unicode="^" horiz-adv-x="1062" d="M49 700l402 631h157l406 -631h-201l-287 441l-272 -441h-205z" />
<glyph unicode="_" horiz-adv-x="1056" d="M39 -90h981v-154h-981v154z" />
<glyph unicode="`" horiz-adv-x="921" d="M270 1335l133 164l281 -285l-92 -104z" />
<glyph unicode="a" horiz-adv-x="1069" d="M61 268q0 73 29.5 128.5t76 88.5t112 54t130 28.5t138.5 7.5q38 0 104 -4l2 78q0 91 -35 127.5t-114 36.5q-43 0 -79 -11q-37 -12 -59 -44q-14 -20 -13 -45q0 -16 5 -35l-223 -31q-16 50 -16 86q0 121 115.5 199t293.5 78q385 0 385 -346l-2 -390q0 -94 60 -94q15 0 35 6 l12 -184q-86 -22 -146 -22q-177 0 -204 157q-107 -157 -297 -157q-140 0 -225 75t-85 213zM328 287q0 -55 35.5 -83t89.5 -28q113 0 198 111v131q-53 6 -102 6q-221 0 -221 -137z" />
<glyph unicode="b" horiz-adv-x="1153" d="M123 78v1325h260v-524q63 59 142 95t159 36q193 0 298 -132t105 -364q0 -247 -146.5 -390.5t-387.5 -143.5q-232 0 -430 98zM383 227q69 -39 162 -39q124 0 196 77.5t72 221.5q0 293 -211 293q-114 0 -219 -108v-445z" />
<glyph unicode="c" horiz-adv-x="958" d="M66 489q0 232 137.5 376.5t365.5 144.5q192 0 334 -82l-84 -232q-112 103 -235 103q-115 0 -179.5 -78.5t-64.5 -228.5q0 -151 68 -225t184 -74q129 0 242 92l65 -205q-77 -51 -174 -75.5t-184 -24.5q-102 0 -187.5 32t-150 94t-101 160t-36.5 223z" />
<glyph unicode="d" horiz-adv-x="1165" d="M70 475q0 247 144 391t378 144q70 0 180 -21v414h262v-1403h-237l-9 135q-61 -67 -145 -111t-170 -44q-194 0 -298.5 131.5t-104.5 363.5zM344 502q0 -293 211 -293q114 0 217 115v434q-68 43 -166 43q-122 0 -192 -77.5t-70 -221.5z" />
<glyph unicode="e" horiz-adv-x="1040" d="M68 500q0 116 38 213.5t102 161.5t147.5 99.5t176.5 35.5q213 0 325 -120t112 -390q0 -50 -2 -66h-635q16 -134 89 -192t193 -58q69 0 145.5 31t133.5 78l68 -205q-194 -108 -400 -108q-104 0 -191 29.5t-155.5 90t-107.5 162.5t-39 238zM334 598h373v21q0 204 -168 204 q-93 0 -143 -54t-62 -171z" />
<glyph unicode="f" horiz-adv-x="757" d="M47 776v180l152 17v78q7 191 110 281.5t275 90.5q131 0 237 -47l-47 -221q-88 64 -172 64q-143 0 -143 -179v-67h274v-197h-274v-776h-260v776h-152z" />
<glyph unicode="g" horiz-adv-x="1114" d="M25 -203q0 170 223 256q-72 50 -72 129q0 93 174 166q-137 30 -215 111.5t-78 202.5q0 107 63 187.5t164.5 120.5t223.5 40q67 0 185.5 -19t254.5 -20h139v-170h-155q35 -56 35 -125q0 -131 -106.5 -225t-276.5 -113q-174 -49 -174 -90q0 -30 47.5 -41.5t156.5 -16.5 q87 -5 147 -12.5t121.5 -25.5t98 -46.5t59.5 -76t23 -113.5q0 -70 -39 -137t-108 -121.5t-175.5 -87.5t-230.5 -33q-222 0 -353.5 67.5t-131.5 192.5zM264 -143q0 -136 264 -136q123 0 196 43.5t73 114.5q0 59 -45.5 83t-151.5 30q-128 7 -192 14q-144 -55 -144 -149z M322 668q0 -82 55 -127t133 -45q82 0 137 44.5t55 129.5q0 86 -51 129t-141 43q-83 0 -135.5 -42.5t-52.5 -131.5z" />
<glyph unicode="h" horiz-adv-x="1175" d="M131 0v1403h260v-539q146 146 332 146q67 0 123.5 -18t105 -56.5t76 -108t27.5 -163.5v-664h-260v578q0 112 -41.5 154t-122.5 42q-60 0 -124 -30t-116 -78v-666h-260z" />
<glyph unicode="i" d="M115 1307q0 63 43.5 107t105.5 44q63 0 107.5 -44t44.5 -107t-44.5 -106.5t-107.5 -43.5q-62 0 -105.5 43.5t-43.5 106.5zM131 0v983h260v-983h-260z" />
<glyph unicode="j" d="M-174 -240h22q127 0 202 54q81 58 81 202v967h260v-977q0 -111 -34 -196t-86.5 -135t-125 -81.5t-140.5 -42.5q-62 -10 -130 -10h-12zM115 1307q0 63 43.5 107t105.5 44q63 0 107.5 -44t44.5 -107t-44.5 -106.5t-107.5 -43.5q-62 0 -105.5 43.5t-43.5 106.5z" />
<glyph unicode="k" horiz-adv-x="1064" d="M131 0v1403h260v-821l66 20l258 381h289l-330 -463l391 -520h-322l-280 399l-72 -16v-383h-260z" />
<glyph unicode="l" d="M131 0v1403h260v-1403h-260z" />
<glyph unicode="m" horiz-adv-x="1800" d="M131 0v983h240l4 -133q145 160 327 160q101 0 181.5 -41t120.5 -129q150 170 342 170q67 0 123.5 -18t105 -56t76.5 -108t28 -164v-664h-260v578q0 112 -42.5 154t-123.5 42q-49 0 -108.5 -30t-108.5 -76v-668h-262v578q0 112 -41.5 154t-122.5 42q-49 0 -110 -30.5 t-109 -77.5v-666h-260z" />
<glyph unicode="n" horiz-adv-x="1175" d="M131 0v983h240l4 -133q145 160 348 160q67 0 123.5 -18t105 -56.5t76 -108t27.5 -163.5v-664h-260v578q0 112 -41.5 154t-122.5 42q-60 0 -124 -30t-116 -78v-666h-260z" />
<glyph unicode="o" horiz-adv-x="1148" d="M66 496q0 223 139.5 368.5t367.5 145.5q242 0 375 -138.5t133 -375.5q0 -143 -58 -259t-174.5 -186.5t-273.5 -70.5q-239 0 -374 136t-135 380zM340 498q0 -314 229 -314q133 0 185.5 77t52.5 237q0 307 -238 307q-229 0 -229 -307z" />
<glyph unicode="p" horiz-adv-x="1165" d="M131 -451v1434h238l6 -129q63 69 146 112.5t171 43.5q193 0 298.5 -132.5t105.5 -363.5q0 -247 -145.5 -390.5t-379.5 -143.5q-85 0 -180 18v-449h-260zM391 231q71 -43 166 -43q122 0 193 77.5t71 221.5q0 293 -211 293q-57 0 -114.5 -30.5t-104.5 -83.5v-435z" />
<glyph unicode="q" horiz-adv-x="1153" d="M68 475q0 249 152.5 392t393.5 143q214 0 418 -92v-1369h-260v570q-62 -62 -141 -100.5t-160 -38.5q-193 0 -298 132t-105 363zM342 502q0 -293 211 -293q57 0 114.5 31t104.5 84v436q-70 41 -168 41q-122 0 -192 -77.5t-70 -221.5z" />
<glyph unicode="r" horiz-adv-x="757" d="M131 0v983h234l10 -190q114 202 284 202q51 0 78 -6l-20 -266q-42 18 -111 18q-116 0 -215 -137v-604h-260z" />
<glyph unicode="s" horiz-adv-x="911" d="M63 61l64 222q48 -42 128.5 -73.5t150.5 -31.5q167 0 167 105q0 33 -27.5 57.5t-71 41.5t-96 34.5t-105.5 41.5t-96.5 56.5t-71 86.5t-27.5 124q0 87 56.5 153t145 99t191.5 33q217 0 356 -84l-75 -217q-38 45 -106 74.5t-152 29.5q-56 0 -101 -20.5t-45 -67.5 q0 -27 27.5 -48t71.5 -37t97 -33.5t106 -43.5t97 -59.5t71.5 -88t27.5 -124.5q0 -83 -37 -145.5t-100.5 -97.5t-138 -51.5t-160.5 -16.5q-96 0 -189.5 21.5t-157.5 59.5z" />
<glyph unicode="t" horiz-adv-x="835" d="M39 776v180l149 17l33 258h225v-258h312v-197h-312v-420q3 -93 37 -130.5t105 -37.5q45 0 93.5 21t86.5 53l43 -209q-140 -73 -297 -73q-330 0 -330 327v469h-145z" />
<glyph unicode="u" horiz-adv-x="1171" d="M121 326v657h260v-586q0 -114 39 -157t115 -43q112 0 243 127v659h262v-983h-233l-12 139q-141 -159 -340 -159q-334 0 -334 346z" />
<glyph unicode="v" horiz-adv-x="1026" d="M8 983h279l139 -432l94 -346l92 354l133 424h277l-350 -983h-324z" />
<glyph unicode="w" horiz-adv-x="1593" d="M35 983h278l95 -442l59 -320l72 316l116 446h293l121 -459l66 -303l55 303l96 459h273l-271 -983h-313l-96 330l-86 377l-86 -379l-99 -328h-313z" />
<glyph unicode="x" horiz-adv-x="993" d="M14 0l338 508l-299 475h287l168 -283l156 283h276l-295 -455l330 -528h-281l-207 346l-202 -346h-271z" />
<glyph unicode="y" horiz-adv-x="1019" d="M4 983h283l143 -426l92 -299l88 287l142 438h262l-516 -1434h-260l139 392z" />
<glyph unicode="z" horiz-adv-x="974" d="M61 0v162l488 614h-455v207h797v-162l-496 -614h512v-207h-846z" />
<glyph unicode="{" horiz-adv-x="708" d="M49 492v163h53q121 3 121 86v433q0 58 8 103.5t31 90t61 74t100 47.5t146 18h101v-157h-84q-96 0 -130 -40t-34 -132v-328q0 -56 -6 -96t-23.5 -78.5t-52.5 -64t-88 -38.5q170 -25 170 -268v-336q0 -48 4.5 -75.5t20 -50.5t46 -32.5t80.5 -9.5h97v-159h-109 q-105 0 -173.5 21t-103.5 66.5t-48 101.5t-13 142v433q0 44 -28 63.5t-91 22.5h-55z" />
<glyph unicode="|" horiz-adv-x="503" d="M152 -29v1434h200v-1434h-200z" />
<glyph unicode="}" horiz-adv-x="708" d="M39 -199h96q49 0 79.5 9.5t46.5 32t21 51t5 75.5v336q0 243 170 268q-53 13 -88 38.5t-52.5 64t-23.5 78.5t-6 96v328q0 92 -34 132t-130 40h-84v157h98q84 0 147 -18t100.5 -47.5t61 -74t31.5 -90t8 -103.5v-433q0 -44 31.5 -64t95.5 -22h45v-163h-47q-67 -2 -96 -21.5 t-29 -64.5v-433q0 -86 -13 -142t-48 -101.5t-103.5 -66.5t-173.5 -21h-108v159z" />
<glyph unicode="~" horiz-adv-x="1208" d="M51 532q44 70 87.5 116.5t86.5 70t80.5 32.5t83.5 9q64 0 136 -25t123 -55t104.5 -55t85.5 -25q53 0 92.5 37.5t101.5 136.5l125 -90q-44 -77 -89.5 -129.5t-88.5 -79t-80.5 -37t-79.5 -10.5q-62 0 -126 25.5t-108.5 55.5t-100.5 55.5t-105 25.5q-100 0 -207 -148z" />
<glyph unicode="&#xa1;" d="M102 840q0 70 41.5 108.5t116.5 38.5q77 0 116.5 -38t39.5 -109q0 -67 -42 -106.5t-114 -39.5q-69 0 -113.5 37.5t-44.5 108.5zM139 84l25 410h192l25 -410v-451h-242v451z" />
<glyph unicode="&#xa2;" horiz-adv-x="974" d="M72 489q0 212 115.5 352t314.5 165v159h145v-159q145 -12 262 -78l-84 -232q-86 77 -178 95v-594q105 15 193 88l65 -205q-103 -70 -258 -92v-142h-145v136q-193 14 -311.5 143.5t-118.5 363.5zM346 492q0 -227 156 -285v575q-156 -56 -156 -290z" />
<glyph unicode="&#xa3;" horiz-adv-x="1208" d="M80 0v154q86 7 137 80.5t51 156.5v184h-170v179h170v129q0 109 37.5 198.5t101 147.5t146.5 89.5t176 31.5q207 0 346 -113l-106 -186q-60 51 -109.5 72.5t-109.5 21.5q-100 0 -162 -60t-62 -200v-131h432v-179h-432v-108q0 -85 -26.5 -149t-93.5 -115h356 q76 0 133.5 21.5t87.5 49.5t61 72l121 -160q-15 -31 -40.5 -60.5t-67.5 -59.5t-107 -48t-143 -18h-727z" />
<glyph unicode="&#xa4;" horiz-adv-x="1028" d="M66 201l190 186q-47 78 -47 156q0 79 47 145l-190 186l94 99l196 -187q69 41 154 41q82 0 160 -43l196 187l99 -92l-195 -189q47 -62 47 -147t-47 -156l195 -186l-101 -88l-192 182q-66 -43 -158 -43q-79 0 -158 45l-196 -186zM397 541q0 -56 31 -89.5t86 -33.5t86 34.5 t31 88.5q0 52 -29.5 84t-87.5 32q-56 0 -86.5 -32t-30.5 -84z" />
<glyph unicode="&#xa5;" horiz-adv-x="1193" d="M35 1331h287l149 -299l147 -299l275 598h264l-364 -706h241v-179h-295v-114h295v-178h-295v-154h-264v154h-301v178h301v114h-301v179h242z" />
<glyph unicode="&#xa6;" horiz-adv-x="548" d="M174 -29v617h201v-617h-201zM174 801v604h201v-604h-201z" />
<glyph unicode="&#xa7;" horiz-adv-x="1050" d="M39 -401l2 206q65 -41 130.5 -60t111.5 -19q86 0 143.5 33t58.5 104q0 73 -55.5 221t-122.5 289.5t-122.5 289.5t-55.5 220q1 86 40 162.5t104 131.5t148 94.5t171.5 59t173.5 19.5q113 0 238 -25l-3 -203q-62 39 -142.5 60.5t-141.5 21.5q-62 0 -93.5 -39t-31.5 -106 q0 -69 54.5 -216t120.5 -289t120.5 -288.5t54.5 -214.5q0 -81 -33.5 -152t-90 -122.5t-127 -92t-147 -65t-148 -37t-132.5 -12.5q-113 0 -225 29zM299 911q0 -60 36 -161t87 -211.5t102 -223.5t87 -225t36 -188q0 -43 -16 -74q73 40 108.5 87.5t36.5 119.5q-1 66 -37 171 t-87 217.5t-101.5 225.5t-85.5 222.5t-35 181.5q0 60 27 90q-73 -38 -115.5 -107.5t-42.5 -124.5z" />
<glyph unicode="&#xa8;" horiz-adv-x="921" d="M154 1274q0 55 38.5 93t92.5 38q56 0 94.5 -38t38.5 -93t-38.5 -93t-94.5 -38q-54 0 -92.5 38t-38.5 93zM532 1274q0 55 39 93t95 38q54 0 92.5 -38t38.5 -93t-38.5 -93t-92.5 -38q-56 0 -95 38t-39 93z" />
<glyph unicode="&#xa9;" horiz-adv-x="1443" d="M78 641q0 134 51 256t137 209.5t204 139.5t247 52q133 0 253 -51.5t207 -139.5t138 -210t51 -256q0 -178 -84 -328t-233.5 -238.5t-331.5 -88.5q-129 0 -247 52t-204 140t-137 209t-51 254zM174 641q0 -124 44.5 -232t119 -181.5t173.5 -115.5t206 -42q156 0 282 72.5 t198.5 203.5t72.5 295q0 155 -72 286t-199.5 208t-281.5 77q-151 0 -275 -73t-196 -204t-72 -294zM319 637q0 198 121 310t316 112q150 0 262 -64l-62 -157q-104 77 -208 77q-108 0 -171 -70.5t-63 -203.5q0 -137 62 -206.5t176 -69.5q57 0 118.5 21t108.5 52l45 -149 q-130 -68 -291 -68q-199 0 -306.5 105.5t-107.5 310.5z" />
<glyph unicode="&#xaa;" horiz-adv-x="899" d="M63 793q0 68 38.5 115t105 69.5t136 31.5t149.5 7q34 0 36 -2l2 63q0 63 -26.5 89t-85.5 26q-42 0 -76.5 -16.5t-34.5 -51.5q0 -8 4 -28l-186 -27q-14 31 -14 70q-1 92 92 151.5t233 59.5q143 0 227.5 -62.5t84.5 -200.5l-3 -292q0 -63 39 -66q9 0 33 8l10 -145 q-74 -19 -120 -19q-65 0 -106.5 27.5t-55.5 75.5q-88 -103 -232 -103q-112 0 -181 57.5t-69 162.5zM287 817q0 -44 25 -66t65 -22q87 0 151 76v110q-30 5 -77 5q-73 0 -118.5 -26.5t-45.5 -76.5z" />
<glyph unicode="&#xab;" horiz-adv-x="1005" d="M37 479l272 473h211l-213 -467l213 -479h-211zM465 479l274 473h207l-211 -467l211 -479h-207z" />
<glyph unicode="&#xac;" horiz-adv-x="1427" d="M88 522v156h1221v-563h-187v407h-1034z" />
<glyph unicode="&#xad;" horiz-adv-x="831" d="M135 412v217h561v-217h-561z" />
<glyph unicode="&#xae;" horiz-adv-x="1148" d="M82 846q0 137 66 253t178.5 183.5t244.5 67.5q135 0 249 -67.5t180.5 -183.5t66.5 -253q0 -142 -66.5 -257.5t-180 -180t-249.5 -64.5q-132 0 -244.5 67.5t-178.5 183t-66 251.5zM168 846q0 -126 56.5 -224.5t148 -150t198.5 -51.5q181 0 295.5 117.5t114.5 308.5 q0 112 -51.5 209.5t-146.5 157t-212 59.5q-176 0 -289.5 -119t-113.5 -307zM338 532v633h244q258 0 258 -209q0 -134 -119 -184l119 -240h-170l-88 211h-90v-211h-154zM492 852h77q55 0 83 23.5t28 80.5q0 54 -25 76.5t-88 22.5h-75v-203z" />
<glyph unicode="&#xaf;" horiz-adv-x="921" d="M188 1204v164h543v-164h-543z" />
<glyph unicode="&#xb0;" horiz-adv-x="696" d="M57 1079q0 120 81.5 195.5t211.5 75.5q131 0 210 -72t79 -199q0 -124 -79.5 -199t-209.5 -75q-133 0 -213 74.5t-80 199.5zM203 1079q0 -72 39 -114.5t108 -42.5q67 0 103 43t36 114q0 72 -35 112t-104 40q-71 0 -109 -39.5t-38 -112.5z" />
<glyph unicode="&#xb1;" horiz-adv-x="1036" d="M88 -12v168h860v-168h-860zM88 535v172h332v278h196v-278h332v-172h-332v-269h-196v269h-332z" />
<glyph unicode="&#xb2;" horiz-adv-x="673" d="M45 778v107q52 30 111 78.5t112 104.5t88 117.5t35 108.5q0 43 -24 65.5t-60 22.5q-65 0 -160 -90l-90 105q123 123 283 123q113 0 182.5 -58.5t69.5 -150.5q0 -94 -84.5 -200t-202.5 -189h320v-144h-580z" />
<glyph unicode="&#xb3;" horiz-adv-x="661" d="M33 852l88 129q82 -74 178 -74q44 0 78.5 23t34.5 61q0 51 -61 79.5t-167 31.5v98q87 3 141 34.5t54 76.5q0 32 -27 50.5t-63 18.5q-76 0 -150 -61l-80 108q4 4 12 10t35 22t56.5 28.5t75.5 22.5t94 10q108 0 177 -53t69 -132q0 -53 -36 -94t-98 -65q79 -25 122.5 -75 t43.5 -120q0 -83 -76.5 -148t-228.5 -65q-87 0 -159 26.5t-113 57.5z" />
<glyph unicode="&#xb4;" horiz-adv-x="921" d="M270 1214l281 285l133 -164l-322 -225z" />
<glyph unicode="&#xb5;" horiz-adv-x="1169" d="M119 -451v1434h260v-586q0 -114 38.5 -157t114.5 -43q113 0 244 127v659h260v-983h-231l-12 139q-144 -159 -340 -159q-33 0 -77 6t-57 18q60 -91 60 -203v-252h-260z" />
<glyph unicode="&#xb6;" horiz-adv-x="1187" d="M39 778q0 107 41.5 204.5t119.5 176t203 125.5t279 47v-1782h-205v705q-211 64 -324.5 205t-113.5 319zM848 -451v1782h205v-1782h-205z" />
<glyph unicode="&#xb7;" horiz-adv-x="489" d="M94 604q0 63 43.5 106.5t106.5 43.5t107 -43t44 -107t-43.5 -106.5t-107.5 -42.5q-63 0 -106.5 42.5t-43.5 106.5z" />
<glyph unicode="&#xb8;" horiz-adv-x="921" d="M258 -430l47 133q53 -49 121 -49q84 0 84 63q0 81 -154 84l56 217h123l-33 -129q92 -15 140 -64.5t48 -119.5q0 -86 -72 -132t-172 -46q-51 0 -103.5 12.5t-84.5 30.5z" />
<glyph unicode="&#xb9;" horiz-adv-x="477" d="M27 1364v141l350 15v-742h-195v592z" />
<glyph unicode="&#xba;" horiz-adv-x="925" d="M57 963q0 168 112.5 277.5t295.5 109.5q192 0 297.5 -103.5t105.5 -283.5q0 -167 -107.5 -278.5t-295.5 -111.5q-190 0 -299 104t-109 286zM287 965q0 -114 41.5 -171t132.5 -57q102 0 140 55.5t38 172.5q0 49 -8 87t-27 69.5t-55 48t-88 16.5q-95 0 -134.5 -57 t-39.5 -164z" />
<glyph unicode="&#xbb;" horiz-adv-x="1005" d="M59 6l213 479l-213 467h207l277 -473l-277 -473h-207zM487 6l211 479l-211 467h209l273 -473l-273 -473h-209z" />
<glyph unicode="&#xbc;" horiz-adv-x="1533" d="M39 1208v142l350 14v-741h-194v591zM231 164l930 1126l113 -86l-930 -1124zM834 152v96l346 483h186v-444h107v-135h-107v-152h-195v152h-337zM1004 287h167v241z" />
<glyph unicode="&#xbd;" horiz-adv-x="1615" d="M39 1208v142l350 14v-741h-194v591zM231 164l930 1126l113 -86l-930 -1124zM965 0v106q72 41 149.5 110t137 153.5t59.5 146.5q0 43 -24 65.5t-60 22.5q-65 0 -160 -90l-90 104q123 123 283 123q113 0 182 -58.5t69 -150.5q0 -94 -84.5 -200t-201.5 -189h319v-143h-579z " />
<glyph unicode="&#xbe;" horiz-adv-x="1644" d="M70 696l88 129q80 -73 178 -73q44 0 78.5 23t34.5 61q0 51 -61 79t-167 31v98q87 3 141 34.5t54 76.5q0 32 -27 51t-63 19q-75 0 -150 -62l-80 109q4 4 12 10t35 22t56.5 28t75.5 22t94 10q108 0 176.5 -52.5t68.5 -131.5q0 -53 -35.5 -94.5t-97.5 -65.5 q79 -25 122.5 -75t43.5 -120q0 -83 -76.5 -148t-228.5 -65q-87 0 -159 26.5t-113 57.5zM371 164l929 1126l113 -86l-930 -1124zM942 152v96l346 483h187v-444h106v-135h-106v-152h-195v152h-338zM1112 287h168v241z" />
<glyph unicode="&#xbf;" horiz-adv-x="890" d="M37 -86q0 52 21 98t54 79.5t73 63.5t80.5 57t73.5 53.5t54 58.5t21 67q0 47 -45 107l252 63q41 -92 41 -172q0 -50 -25.5 -97.5t-63.5 -82.5t-82.5 -72t-82.5 -68t-63.5 -68.5t-25.5 -74.5q0 -55 45 -83.5t117 -28.5q158 0 269 108l104 -170q-169 -137 -410 -137 q-113 0 -203 32.5t-146.5 101.5t-57.5 165zM317 840q0 71 41 109t117 38t116 -38t40 -109q0 -67 -42 -106.5t-114 -39.5q-71 0 -114.5 37.5t-43.5 108.5z" />
<glyph unicode="&#xc0;" horiz-adv-x="1224" d="M-2 0l467 1331h293l471 -1331h-281l-102 305h-481l-97 -305h-270zM299 1544l84 199l379 -221l-57 -123zM432 514h344l-59 176l-117 383l-115 -391z" />
<glyph unicode="&#xc1;" horiz-adv-x="1224" d="M-2 0l467 1331h293l471 -1331h-281l-102 305h-481l-97 -305h-270zM432 514h344l-59 176l-117 383l-115 -391zM436 1522l379 221l84 -199l-405 -145z" />
<glyph unicode="&#xc2;" horiz-adv-x="1224" d="M-2 0l467 1331h293l471 -1331h-281l-102 305h-481l-97 -305h-270zM293 1542l256 207h119l254 -201l-93 -127l-227 150l-223 -150zM432 514h344l-59 176l-117 383l-115 -391z" />
<glyph unicode="&#xc3;" horiz-adv-x="1224" d="M-2 0l467 1331h293l471 -1331h-281l-102 305h-481l-97 -305h-270zM252 1540q45 75 102 114.5t117 39.5q49 0 136 -28t128 -28q77 0 129 62l82 -90q-40 -68 -102.5 -111t-124.5 -43q-40 0 -125.5 32t-130.5 32q-75 0 -131 -60zM432 514h344l-59 176l-117 383l-115 -391z " />
<glyph unicode="&#xc4;" horiz-adv-x="1224" d="M-2 0l467 1331h293l471 -1331h-281l-102 305h-481l-97 -305h-270zM264 1591q0 54 38 92.5t93 38.5t94 -38.5t39 -92.5q0 -55 -39 -94t-94 -39t-93 38.5t-38 94.5zM432 514h344l-59 176l-117 383l-115 -391zM672 1591q0 54 38.5 92.5t92.5 38.5q55 0 94 -38.5t39 -92.5 q0 -55 -39 -94t-94 -39q-54 0 -92.5 39t-38.5 94z" />
<glyph unicode="&#xc5;" horiz-adv-x="1224" d="M-2 0l467 1331h293l471 -1331h-281l-102 305h-481l-97 -305h-270zM377 1614q0 96 66.5 151.5t160.5 55.5q96 0 158.5 -53t62.5 -154q0 -88 -61.5 -148.5t-163.5 -60.5t-162.5 57.5t-60.5 151.5zM432 514h344l-59 176l-117 383l-115 -391zM516 1614q0 -92 84 -92 q46 0 66 22.5t20 69.5q0 90 -86 90q-45 0 -64.5 -22.5t-19.5 -67.5z" />
<glyph unicode="&#xc6;" horiz-adv-x="1771" d="M-25 0l738 1331h962v-219h-600v-324h539v-217h-539v-348h598v-223h-862v305h-405l-160 -305h-271zM512 506h299v565z" />
<glyph unicode="&#xc7;" horiz-adv-x="1200" d="M76 659q0 214 86.5 372t236 238.5t342.5 80.5q105 0 211 -26t183 -73l-88 -239q-152 118 -318 118q-174 0 -272.5 -119t-98.5 -345q0 -233 95 -351t280 -118q91 0 182 31.5t162 80.5l68 -225q-178 -93 -387 -102l-23 -93q92 -15 140.5 -64.5t48.5 -119.5q0 -86 -72 -132 t-172 -46q-51 0 -103.5 12.5t-84.5 30.5l47 133q53 -49 120 -49q84 0 84 63q0 81 -153 84l45 183q-270 19 -414.5 188.5t-144.5 486.5z" />
<glyph unicode="&#xc8;" horiz-adv-x="1116" d="M156 0v1331h864v-219h-598v-324h536v-217h-536v-348h596v-223h-862zM342 1544l84 199l379 -221l-57 -123z" />
<glyph unicode="&#xc9;" horiz-adv-x="1116" d="M156 0v1331h864v-219h-598v-324h536v-217h-536v-348h596v-223h-862zM412 1522l379 221l83 -199l-405 -145z" />
<glyph unicode="&#xca;" horiz-adv-x="1116" d="M156 0v1331h864v-219h-598v-324h536v-217h-536v-348h596v-223h-862zM287 1542l256 207h119l253 -201l-92 -127l-227 150l-223 -150z" />
<glyph unicode="&#xcb;" horiz-adv-x="1116" d="M156 0v1331h864v-219h-598v-324h536v-217h-536v-348h596v-223h-862zM272 1591q0 54 38 92.5t93 38.5t94.5 -38.5t39.5 -92.5q0 -55 -39 -94t-95 -39q-55 0 -93 38.5t-38 94.5zM680 1591q0 54 38.5 92.5t92.5 38.5q55 0 94 -38.5t39 -92.5q0 -55 -39 -94t-94 -39 q-54 0 -92.5 39t-38.5 94z" />
<glyph unicode="&#xcc;" horiz-adv-x="577" d="M-27 1544l84 199l379 -221l-57 -123zM156 0v1331h266v-1331h-266z" />
<glyph unicode="&#xcd;" horiz-adv-x="577" d="M111 1522l378 221l84 -199l-405 -145zM156 0v1331h266v-1331h-266z" />
<glyph unicode="&#xce;" horiz-adv-x="577" d="M-37 1542l256 207h119l254 -201l-92 -127l-228 150l-223 -150zM156 0v1331h266v-1331h-266z" />
<glyph unicode="&#xcf;" horiz-adv-x="577" d="M-51 1591q0 54 38 92.5t93 38.5t94 -38.5t39 -92.5q0 -55 -38.5 -94t-94.5 -39q-55 0 -93 38.5t-38 94.5zM156 0v1331h266v-1331h-266zM356 1591q0 54 38.5 92.5t92.5 38.5q55 0 94.5 -38.5t39.5 -92.5q0 -55 -39 -94t-95 -39q-54 0 -92.5 39t-38.5 94z" />
<glyph unicode="&#xd0;" horiz-adv-x="1394" d="M35 573v203h121v555h487q178 0 309 -47t209 -134t115 -202t37 -260q0 -123 -18 -221.5t-64 -188t-120.5 -149t-193 -94.5t-276.5 -35h-485v573h-121zM422 223h235q91 0 158 21t108 56.5t65 91.5t33 116.5t9 140.5q0 84 -10.5 150t-37.5 126.5t-70.5 100t-113 63 t-161.5 23.5h-215v-336h225v-203h-225v-350z" />
<glyph unicode="&#xd1;" horiz-adv-x="1474" d="M156 0v1331h284l387 -561l246 -373l-2 365v569h248v-1331h-268l-392 571l-253 387l2 -395v-563h-252zM412 1540q45 75 102 114.5t117 39.5q49 0 136 -28t128 -28q77 0 129 62l82 -90q-40 -68 -102.5 -111t-124.5 -43q-40 0 -125.5 32t-130.5 32q-75 0 -131 -60z" />
<glyph unicode="&#xd2;" horiz-adv-x="1437" d="M76 655q0 200 76.5 357t223 247.5t339.5 90.5q146 0 263 -40t203.5 -122t133.5 -214.5t47 -309.5q0 -146 -44.5 -271t-126.5 -217t-205 -144t-273 -52q-294 0 -465.5 177t-171.5 498zM356 655q0 -226 86 -341t271 -115q186 0 277 115t91 350q0 249 -87.5 357.5 t-278.5 108.5q-185 0 -272 -113.5t-87 -361.5zM424 1544l84 199l379 -221l-58 -123z" />
<glyph unicode="&#xd3;" horiz-adv-x="1437" d="M76 655q0 200 76.5 357t223 247.5t339.5 90.5q146 0 263 -40t203.5 -122t133.5 -214.5t47 -309.5q0 -146 -44.5 -271t-126.5 -217t-205 -144t-273 -52q-294 0 -465.5 177t-171.5 498zM356 655q0 -226 86 -341t271 -115q186 0 277 115t91 350q0 249 -87.5 357.5 t-278.5 108.5q-185 0 -272 -113.5t-87 -361.5zM553 1522l379 221l84 -199l-406 -145z" />
<glyph unicode="&#xd4;" horiz-adv-x="1437" d="M76 655q0 200 76.5 357t223 247.5t339.5 90.5q146 0 263 -40t203.5 -122t133.5 -214.5t47 -309.5q0 -146 -44.5 -271t-126.5 -217t-205 -144t-273 -52q-294 0 -465.5 177t-171.5 498zM356 655q0 -226 86 -341t271 -115q186 0 277 115t91 350q0 249 -87.5 357.5 t-278.5 108.5q-185 0 -272 -113.5t-87 -361.5zM422 1542l256 207h119l254 -201l-93 -127l-227 150l-223 -150z" />
<glyph unicode="&#xd5;" horiz-adv-x="1437" d="M76 655q0 200 76.5 357t223 247.5t339.5 90.5q146 0 263 -40t203.5 -122t133.5 -214.5t47 -309.5q0 -146 -44.5 -271t-126.5 -217t-205 -144t-273 -52q-294 0 -465.5 177t-171.5 498zM356 655q0 -226 86 -341t271 -115q186 0 277 115t91 350q0 249 -87.5 357.5 t-278.5 108.5q-185 0 -272 -113.5t-87 -361.5zM375 1540q45 75 102 114.5t117 39.5q50 0 137 -28t127 -28q77 0 129 62l82 -90q-40 -68 -102.5 -111t-124.5 -43q-40 0 -125.5 32t-130.5 32q-75 0 -131 -60z" />
<glyph unicode="&#xd6;" horiz-adv-x="1437" d="M76 655q0 200 76.5 357t223 247.5t339.5 90.5q146 0 263 -40t203.5 -122t133.5 -214.5t47 -309.5q0 -146 -44.5 -271t-126.5 -217t-205 -144t-273 -52q-294 0 -465.5 177t-171.5 498zM356 655q0 -226 86 -341t271 -115q186 0 277 115t91 350q0 249 -87.5 357.5 t-278.5 108.5q-185 0 -272 -113.5t-87 -361.5zM371 1591q0 54 38 92.5t93 38.5t94 -38.5t39 -92.5q0 -55 -38.5 -94t-94.5 -39q-55 0 -93 38.5t-38 94.5zM778 1591q0 54 38.5 92.5t92.5 38.5q55 0 94 -38.5t39 -92.5q0 -55 -39 -94t-94 -39q-54 0 -92.5 39t-38.5 94z" />
<glyph unicode="&#xd7;" horiz-adv-x="899" d="M94 352l228 217l-226 213l137 131l224 -215l227 217l127 -120l-229 -215l231 -222l-135 -129l-232 222l-225 -220z" />
<glyph unicode="&#xd8;" horiz-adv-x="1437" d="M53 -14l164 202q-141 173 -141 467q0 200 76.5 357t223 247.5t339.5 90.5q216 0 372 -93l70 86h221l-159 -196q143 -176 143 -483q0 -146 -44.5 -271t-126.5 -217t-205 -144t-273 -52q-213 0 -367 94l-72 -88h-221zM356 655q0 -159 37 -252l545 670q-83 57 -223 57 q-185 0 -272 -113.5t-87 -361.5zM498 258q80 -59 215 -59q186 0 277 115t91 350q0 168 -39 266z" />
<glyph unicode="&#xd9;" horiz-adv-x="1402" d="M139 467v864h267v-819q0 -179 71 -247t228 -68q151 0 226 74.5t75 244.5v815h256v-858q0 -105 -31.5 -189.5t-84.5 -140t-126.5 -93t-154.5 -54t-171 -16.5q-93 0 -172.5 14.5t-151.5 50t-122 90.5t-79.5 139.5t-29.5 192.5zM424 1544l84 199l379 -221l-58 -123z" />
<glyph unicode="&#xda;" horiz-adv-x="1402" d="M139 467v864h267v-819q0 -179 71 -247t228 -68q151 0 226 74.5t75 244.5v815h256v-858q0 -105 -31.5 -189.5t-84.5 -140t-126.5 -93t-154.5 -54t-171 -16.5q-93 0 -172.5 14.5t-151.5 50t-122 90.5t-79.5 139.5t-29.5 192.5zM535 1522l378 221l84 -199l-405 -145z" />
<glyph unicode="&#xdb;" horiz-adv-x="1402" d="M139 467v864h267v-819q0 -179 71 -247t228 -68q151 0 226 74.5t75 244.5v815h256v-858q0 -105 -31.5 -189.5t-84.5 -140t-126.5 -93t-154.5 -54t-171 -16.5q-93 0 -172.5 14.5t-151.5 50t-122 90.5t-79.5 139.5t-29.5 192.5zM387 1542l256 207h119l254 -201l-92 -127 l-228 150l-223 -150z" />
<glyph unicode="&#xdc;" horiz-adv-x="1402" d="M139 467v864h267v-819q0 -179 71 -247t228 -68q151 0 226 74.5t75 244.5v815h256v-858q0 -105 -31.5 -189.5t-84.5 -140t-126.5 -93t-154.5 -54t-171 -16.5q-93 0 -172.5 14.5t-151.5 50t-122 90.5t-79.5 139.5t-29.5 192.5zM354 1591q0 54 38 92.5t93 38.5t94 -38.5 t39 -92.5q0 -55 -39 -94t-94 -39t-93 38.5t-38 94.5zM762 1591q0 54 38.5 92.5t92.5 38.5q55 0 94 -38.5t39 -92.5q0 -55 -39 -94t-94 -39q-54 0 -92.5 39t-38.5 94z" />
<glyph unicode="&#xdd;" horiz-adv-x="1095" d="M-18 1331h286l150 -299l147 -299l275 598h264l-418 -811v-520h-264v514zM367 1522l378 221l84 -199l-405 -145z" />
<glyph unicode="&#xde;" horiz-adv-x="1155" d="M156 0v1331h266v-160h196q255 0 373.5 -118.5t118.5 -325.5q0 -213 -131 -338t-369 -125h-188v-264h-266zM422 494h180q112 0 169.5 53t57.5 176q0 113 -51.5 171t-183.5 58h-172v-458z" />
<glyph unicode="&#xdf;" horiz-adv-x="1363" d="M47 776v180l152 17v53q0 104 39.5 182.5t107 124t150 68t176.5 22.5q226 0 330 -81t104 -222q0 -42 -19.5 -80.5t-49 -66t-63.5 -56.5t-63.5 -53t-49 -54t-19.5 -60q0 -33 27 -58.5t70 -44.5t95 -38.5t104.5 -45.5t95.5 -59.5t70 -88t27 -124.5q0 -83 -37 -145.5 t-100 -97.5t-137.5 -51.5t-159.5 -16.5q-97 0 -190.5 21.5t-157.5 59.5l65 222q47 -42 126.5 -73.5t150.5 -31.5q168 0 168 105q0 33 -27 58t-70 42t-95 34t-104 41t-95 55.5t-70 84.5t-27 121q0 58 25.5 108t61.5 84t72 64t61.5 62.5t25.5 64.5q0 52 -42.5 84.5 t-117.5 32.5q-102 0 -150 -57t-48 -185v-977h-260v776h-152z" />
<glyph unicode="&#xe0;" horiz-adv-x="1069" d="M61 268q0 73 29.5 128.5t76 88.5t112 54t130 28.5t138.5 7.5q38 0 104 -4l2 78q0 91 -35 127.5t-114 36.5q-43 0 -79 -11t-58.5 -43.5t-8.5 -80.5l-223 -31q-16 50 -16 86q0 121 115.5 199t293.5 78q385 0 385 -346l-2 -390q0 -118 95 -88l12 -184q-86 -22 -146 -22 q-177 0 -204 157q-107 -157 -297 -157q-140 0 -225 75t-85 213zM231 1335l134 164l280 -285l-92 -104zM328 287q0 -55 35.5 -83t89.5 -28q113 0 198 111v131q-53 6 -102 6q-221 0 -221 -137z" />
<glyph unicode="&#xe1;" horiz-adv-x="1069" d="M61 268q0 73 29.5 128.5t76 88.5t112 54t130 28.5t138.5 7.5q38 0 104 -4l2 78q0 91 -35 127.5t-114 36.5q-43 0 -79 -11t-58.5 -43.5t-8.5 -80.5l-223 -31q-16 50 -16 86q0 121 115.5 199t293.5 78q385 0 385 -346l-2 -390q0 -118 95 -88l12 -184q-86 -22 -146 -22 q-177 0 -204 157q-107 -157 -297 -157q-140 0 -225 75t-85 213zM328 287q0 -55 35.5 -83t89.5 -28q113 0 198 111v131q-53 6 -102 6q-221 0 -221 -137zM379 1214l280 285l134 -164l-322 -225z" />
<glyph unicode="&#xe2;" horiz-adv-x="1069" d="M61 268q0 73 29.5 128.5t76 88.5t112 54t130 28.5t138.5 7.5q38 0 104 -4l2 78q0 91 -35 127.5t-114 36.5q-43 0 -79 -11t-58.5 -43.5t-8.5 -80.5l-223 -31q-16 50 -16 86q0 121 115.5 199t293.5 78q385 0 385 -346l-2 -390q0 -118 95 -88l12 -184q-86 -22 -146 -22 q-177 0 -204 157q-107 -157 -297 -157q-140 0 -225 75t-85 213zM195 1208l272 254h119l258 -252l-121 -112l-203 180l-213 -180zM328 287q0 -55 35.5 -83t89.5 -28q113 0 198 111v131q-53 6 -102 6q-221 0 -221 -137z" />
<glyph unicode="&#xe3;" horiz-adv-x="1069" d="M61 268q0 73 29.5 128.5t76 88.5t112 54t130 28.5t138.5 7.5q38 0 104 -4l2 78q0 91 -35 127.5t-114 36.5q-43 0 -79 -11t-58.5 -43.5t-8.5 -80.5l-223 -31q-16 50 -16 86q0 121 115.5 199t293.5 78q385 0 385 -346l-2 -390q0 -118 95 -88l12 -184q-86 -22 -146 -22 q-177 0 -204 157q-107 -157 -297 -157q-140 0 -225 75t-85 213zM180 1257q93 154 221 154q48 0 129 -27.5t123 -27.5q75 0 129 61l80 -90q-40 -68 -101.5 -110.5t-123.5 -42.5q-40 0 -120.5 31.5t-125.5 31.5q-76 0 -131 -59zM328 287q0 -55 35.5 -83t89.5 -28 q113 0 198 111v131q-53 6 -102 6q-221 0 -221 -137z" />
<glyph unicode="&#xe4;" horiz-adv-x="1069" d="M61 268q0 73 29.5 128.5t76 88.5t112 54t130 28.5t138.5 7.5q38 0 104 -4l2 78q0 91 -35 127.5t-114 36.5q-43 0 -79 -11t-58.5 -43.5t-8.5 -80.5l-223 -31q-16 50 -16 86q0 121 115.5 199t293.5 78q385 0 385 -346l-2 -390q0 -118 95 -88l12 -184q-86 -22 -146 -22 q-177 0 -204 157q-107 -157 -297 -157q-140 0 -225 75t-85 213zM197 1274q0 55 38.5 93t92.5 38q56 0 94.5 -38t38.5 -93t-38.5 -93t-94.5 -38q-54 0 -92.5 38t-38.5 93zM328 287q0 -55 35.5 -83t89.5 -28q113 0 198 111v131q-53 6 -102 6q-221 0 -221 -137zM575 1274 q0 55 39 93t95 38q54 0 92.5 -38t38.5 -93t-38.5 -93t-92.5 -38q-56 0 -95 38t-39 93z" />
<glyph unicode="&#xe5;" horiz-adv-x="1069" d="M61 268q0 73 29.5 128.5t76 88.5t112 54t130 28.5t138.5 7.5q38 0 104 -4l2 78q0 91 -35 127.5t-114 36.5q-43 0 -79 -11t-58.5 -43.5t-8.5 -80.5l-223 -31q-16 50 -16 86q0 121 115.5 199t293.5 78q385 0 385 -346l-2 -390q0 -118 95 -88l12 -184q-86 -22 -146 -22 q-177 0 -204 157q-107 -157 -297 -157q-140 0 -225 75t-85 213zM297 1319q0 98 66.5 152.5t160.5 54.5q95 0 157 -52.5t62 -154.5q0 -88 -60.5 -148.5t-162.5 -60.5q-103 0 -163 57.5t-60 151.5zM328 287q0 -55 35.5 -83t89.5 -28q113 0 198 111v131q-53 6 -102 6 q-221 0 -221 -137zM434 1319q0 -92 86 -92q46 0 65 23t19 69t-20 68t-64 22q-45 0 -65.5 -22t-20.5 -68z" />
<glyph unicode="&#xe6;" horiz-adv-x="1609" d="M61 268q0 73 29 128.5t75.5 88t112.5 53t130 28t139 7.5q63 0 94 -2q0 12 12 72v23q0 80 -36.5 112.5t-112.5 32.5q-43 0 -79 -10.5t-58.5 -42.5t-8.5 -80l-223 -31q-16 50 -16 86q0 121 115.5 199t293.5 78q206 0 295 -105q114 105 281 105q103 0 181 -27.5t136 -86.5 t87.5 -158.5t29.5 -237.5q0 -50 -2 -66h-631q27 -250 279 -250q69 0 145 31t133 78l68 -205q-194 -108 -400 -108q-132 0 -238.5 47.5t-170.5 144.5q-69 -93 -153 -142.5t-197 -49.5q-140 0 -225 75t-85 213zM328 287q0 -55 35.5 -83t89.5 -28q120 0 213 115q-19 59 -25 127 q-62 4 -92 4q-221 0 -221 -135zM903 598h373q9 225 -168 225q-93 0 -143 -54t-62 -171z" />
<glyph unicode="&#xe7;" horiz-adv-x="958" d="M66 489q0 232 137.5 376.5t365.5 144.5q192 0 334 -82l-84 -232q-112 103 -235 103q-115 0 -179.5 -78.5t-64.5 -228.5q0 -151 68 -225t184 -74q129 0 242 92l65 -205q-122 -82 -291 -96l-22 -95q92 -15 140 -64.5t48 -119.5q0 -86 -72 -132t-172 -46q-51 0 -103.5 12.5 t-84.5 30.5l47 133q53 -49 121 -49q84 0 84 63q0 81 -154 84l45 181q-189 16 -304 146t-115 361z" />
<glyph unicode="&#xe8;" horiz-adv-x="1040" d="M68 500q0 116 38 213.5t102 161.5t147.5 99.5t176.5 35.5q213 0 325 -120t112 -390q0 -50 -2 -66h-635q16 -134 89 -192t193 -58q69 0 145.5 31t133.5 78l68 -205q-194 -108 -400 -108q-104 0 -191 29.5t-155.5 90t-107.5 162.5t-39 238zM270 1335l133 164l281 -285 l-92 -104zM334 598h373q9 225 -168 225q-93 0 -143 -54t-62 -171z" />
<glyph unicode="&#xe9;" horiz-adv-x="1040" d="M68 500q0 116 38 213.5t102 161.5t147.5 99.5t176.5 35.5q213 0 325 -120t112 -390q0 -50 -2 -66h-635q16 -134 89 -192t193 -58q69 0 145.5 31t133.5 78l68 -205q-194 -108 -400 -108q-104 0 -191 29.5t-155.5 90t-107.5 162.5t-39 238zM334 598h373q9 225 -168 225 q-93 0 -143 -54t-62 -171zM377 1214l280 285l134 -164l-322 -225z" />
<glyph unicode="&#xea;" horiz-adv-x="1040" d="M68 500q0 116 38 213.5t102 161.5t147.5 99.5t176.5 35.5q213 0 325 -120t112 -390q0 -50 -2 -66h-635q16 -134 89 -192t193 -58q69 0 145.5 31t133.5 78l68 -205q-194 -108 -400 -108q-104 0 -191 29.5t-155.5 90t-107.5 162.5t-39 238zM217 1208l272 254h119l258 -252 l-121 -112l-202 180l-213 -180zM334 598h373q9 225 -168 225q-93 0 -143 -54t-62 -171z" />
<glyph unicode="&#xeb;" horiz-adv-x="1040" d="M68 500q0 116 38 213.5t102 161.5t147.5 99.5t176.5 35.5q213 0 325 -120t112 -390q0 -50 -2 -66h-635q16 -134 89 -192t193 -58q69 0 145.5 31t133.5 78l68 -205q-194 -108 -400 -108q-104 0 -191 29.5t-155.5 90t-107.5 162.5t-39 238zM221 1274q0 55 38.5 93t92.5 38 q56 0 94.5 -38t38.5 -93t-38.5 -93t-94.5 -38q-54 0 -92.5 38t-38.5 93zM334 598h373q9 225 -168 225q-93 0 -143 -54t-62 -171zM600 1274q0 55 38.5 93t94.5 38q54 0 92.5 -38t38.5 -93t-38.5 -93t-92.5 -38q-56 0 -94.5 38t-38.5 93z" />
<glyph unicode="&#xec;" d="M-31 1335l133 164l281 -285l-92 -104zM131 0v983h260v-983h-260z" />
<glyph unicode="&#xed;" d="M86 1214l281 285l133 -164l-322 -225zM131 0v983h260v-983h-260z" />
<glyph unicode="&#xee;" d="M-68 1208l273 254h119l258 -252l-121 -112l-203 180l-213 -180zM131 0v983h260v-983h-260z" />
<glyph unicode="&#xef;" d="M-59 1274q0 55 38.5 93t92.5 38q56 0 94.5 -38t38.5 -93t-38.5 -93t-94.5 -38q-54 0 -92.5 38t-38.5 93zM131 0v983h260v-983h-260zM319 1274q0 55 39 93t95 38q54 0 92.5 -38t38.5 -93t-38.5 -93t-92.5 -38q-56 0 -95 38t-39 93z" />
<glyph unicode="&#xf0;" horiz-adv-x="1173" d="M68 496q0 212 127 346.5t337 134.5q76 0 152 -29q-71 100 -170 176l-94 -108l-115 74l94 112l-94 49l127 166q36 -16 103 -53l77 96l121 -80l-78 -90q199 -135 308.5 -317.5t119.5 -437.5v-39q0 -107 -33.5 -200t-96 -164t-159 -111.5t-214.5 -40.5q-239 0 -375.5 136.5 t-136.5 379.5zM342 498q0 -314 229 -314q133 0 185.5 76t52.5 234q0 130 -33 249q-91 48 -192 48q-132 0 -187 -74t-55 -219z" />
<glyph unicode="&#xf1;" horiz-adv-x="1175" d="M131 0v983h240l4 -133q145 160 348 160q67 0 123.5 -18t105 -56.5t76 -108t27.5 -163.5v-664h-260v578q0 112 -41.5 154t-122.5 42q-60 0 -124 -30t-116 -78v-666h-260zM254 1257q93 154 221 154q48 0 129 -27.5t123 -27.5q75 0 129 61l80 -90q-40 -68 -101.5 -110.5 t-123.5 -42.5q-40 0 -120.5 31.5t-125.5 31.5q-76 0 -131 -59z" />
<glyph unicode="&#xf2;" horiz-adv-x="1148" d="M66 496q0 223 139.5 368.5t367.5 145.5q242 0 375 -138.5t133 -375.5q0 -143 -58 -259t-174.5 -186.5t-273.5 -70.5q-239 0 -374 136t-135 380zM270 1335l133 164l281 -285l-92 -104zM340 498q0 -314 229 -314q133 0 185.5 77t52.5 237q0 307 -238 307q-229 0 -229 -307z " />
<glyph unicode="&#xf3;" horiz-adv-x="1148" d="M66 496q0 223 139.5 368.5t367.5 145.5q242 0 375 -138.5t133 -375.5q0 -143 -58 -259t-174.5 -186.5t-273.5 -70.5q-239 0 -374 136t-135 380zM340 498q0 -314 229 -314q133 0 185.5 77t52.5 237q0 307 -238 307q-229 0 -229 -307zM410 1214l280 285l133 -164l-321 -225 z" />
<glyph unicode="&#xf4;" horiz-adv-x="1148" d="M66 496q0 223 139.5 368.5t367.5 145.5q242 0 375 -138.5t133 -375.5q0 -143 -58 -259t-174.5 -186.5t-273.5 -70.5q-239 0 -374 136t-135 380zM244 1208l272 254h119l258 -252l-121 -112l-203 180l-213 -180zM340 498q0 -314 229 -314q133 0 185.5 77t52.5 237 q0 307 -238 307q-229 0 -229 -307z" />
<glyph unicode="&#xf5;" horiz-adv-x="1148" d="M66 496q0 223 139.5 368.5t367.5 145.5q242 0 375 -138.5t133 -375.5q0 -143 -58 -259t-174.5 -186.5t-273.5 -70.5q-239 0 -374 136t-135 380zM227 1257q93 154 222 154q48 0 128.5 -27.5t122.5 -27.5q75 0 129 61l80 -90q-40 -68 -101.5 -110.5t-123.5 -42.5 q-40 0 -120.5 31.5t-125.5 31.5q-76 0 -131 -59zM340 498q0 -314 229 -314q133 0 185.5 77t52.5 237q0 307 -238 307q-229 0 -229 -307z" />
<glyph unicode="&#xf6;" horiz-adv-x="1148" d="M66 496q0 223 139.5 368.5t367.5 145.5q242 0 375 -138.5t133 -375.5q0 -143 -58 -259t-174.5 -186.5t-273.5 -70.5q-239 0 -374 136t-135 380zM248 1274q0 55 38.5 93t92.5 38q56 0 94.5 -38t38.5 -93t-38.5 -93t-94.5 -38q-54 0 -92.5 38t-38.5 93zM340 498 q0 -314 229 -314q133 0 185.5 77t52.5 237q0 307 -238 307q-229 0 -229 -307zM627 1274q0 55 38.5 93t94.5 38q54 0 92.5 -38t38.5 -93t-38.5 -93t-92.5 -38q-56 0 -94.5 38t-38.5 93z" />
<glyph unicode="&#xf7;" horiz-adv-x="944" d="M72 496v172h800v-172h-800zM340 270q0 56 39 94.5t94 38.5q56 0 95.5 -39t39.5 -94t-39.5 -94t-95.5 -39q-55 0 -94 38.5t-39 94.5zM340 887q0 55 39 94t94 39q56 0 95.5 -39t39.5 -94t-39.5 -94t-95.5 -39q-55 0 -94 39t-39 94z" />
<glyph unicode="&#xf8;" horiz-adv-x="1148" d="M47 -14l129 155q-110 131 -110 355q0 223 139.5 368.5t367.5 145.5q159 0 275 -64l49 58h213l-137 -162q108 -132 108 -346q0 -143 -58 -259t-174.5 -186.5t-273.5 -70.5q-161 0 -274 61l-47 -55h-207zM340 498q0 -87 14 -144l348 416q-53 35 -133 35q-229 0 -229 -307z M446 215q51 -31 123 -31q133 0 185.5 77t52.5 237q0 74 -14 129z" />
<glyph unicode="&#xf9;" horiz-adv-x="1171" d="M121 326v657h260v-586q0 -114 39 -157t115 -43q112 0 243 127v659h262v-983h-233l-12 139q-141 -159 -340 -159q-334 0 -334 346zM307 1335l133 164l281 -285l-92 -104z" />
<glyph unicode="&#xfa;" horiz-adv-x="1171" d="M121 326v657h260v-586q0 -114 39 -157t115 -43q112 0 243 127v659h262v-983h-233l-12 139q-141 -159 -340 -159q-334 0 -334 346zM426 1214l281 285l133 -164l-322 -225z" />
<glyph unicode="&#xfb;" horiz-adv-x="1171" d="M121 326v657h260v-586q0 -114 39 -157t115 -43q112 0 243 127v659h262v-983h-233l-12 139q-141 -159 -340 -159q-334 0 -334 346zM256 1208l272 254h119l258 -252l-121 -112l-202 180l-213 -180z" />
<glyph unicode="&#xfc;" horiz-adv-x="1171" d="M121 326v657h260v-586q0 -114 39 -157t115 -43q112 0 243 127v659h262v-983h-233l-12 139q-141 -159 -340 -159q-334 0 -334 346zM274 1274q0 55 39 93t93 38q56 0 94.5 -38t38.5 -93t-38.5 -93t-94.5 -38q-54 0 -93 38t-39 93zM653 1274q0 55 38.5 93t94.5 38 q54 0 93 -38t39 -93t-39 -93t-93 -38q-56 0 -94.5 38t-38.5 93z" />
<glyph unicode="&#xfd;" horiz-adv-x="1019" d="M4 983h283l143 -426l92 -299l88 287l142 438h262l-516 -1434h-260l139 392zM369 1214l280 285l133 -164l-321 -225z" />
<glyph unicode="&#xfe;" horiz-adv-x="1163" d="M131 -451v1854h260v-549q55 72 137 114t164 42q193 0 298.5 -132.5t105.5 -363.5q0 -247 -145.5 -390.5t-381.5 -143.5q-83 0 -178 18v-449h-260zM391 231q71 -43 164 -43q124 0 195 77.5t71 221.5q0 293 -211 293q-117 0 -219 -114v-435z" />
<glyph unicode="&#xff;" horiz-adv-x="1019" d="M4 983h283l143 -426l92 -299l88 287l142 438h262l-516 -1434h-260l139 392zM209 1274q0 55 38.5 93t92.5 38q56 0 94.5 -38t38.5 -93t-38.5 -93t-94.5 -38q-54 0 -92.5 38t-38.5 93zM588 1274q0 55 38.5 93t94.5 38q54 0 92.5 -38t38.5 -93t-38.5 -93t-92.5 -38 q-56 0 -94.5 38t-38.5 93z" />
<glyph unicode="&#x152;" horiz-adv-x="1830" d="M76 655q0 200 76.5 357t223 247.5t339.5 90.5q96 0 186 -19h836v-219h-600v-324h536v-217h-536v-348h598v-223h-844q-92 -20 -178 -20q-294 0 -465.5 177t-171.5 498zM358 655q0 -227 85 -342.5t270 -115.5q89 0 159 24v887q-70 25 -157 25q-184 0 -270.5 -114.5 t-86.5 -363.5z" />
<glyph unicode="&#x153;" horiz-adv-x="1794" d="M66 496q0 223 139.5 368.5t367.5 145.5q244 0 379 -144q65 69 151 106.5t181 37.5q212 0 324 -119.5t112 -390.5q0 -50 -2 -66h-635q16 -134 89.5 -192t193.5 -58q69 0 145.5 31t133.5 78l67 -205q-194 -108 -399 -108q-242 0 -371 143q-140 -143 -367 -143 q-239 0 -374 136t-135 380zM340 498q0 -314 229 -314q133 0 185.5 77t52.5 237q0 307 -238 307q-229 0 -229 -307zM1085 598h373q9 225 -168 225q-93 0 -143 -54t-62 -171z" />
<glyph unicode="&#x178;" horiz-adv-x="1095" d="M-18 1331h286l150 -299l147 -299l275 598h264l-418 -811v-520h-264v514zM229 1591q0 54 38 92.5t93 38.5t94.5 -38.5t39.5 -92.5q0 -55 -39 -94t-95 -39q-55 0 -93 38.5t-38 94.5zM637 1591q0 54 38.5 92.5t92.5 38.5q55 0 94 -38.5t39 -92.5q0 -55 -38.5 -94t-94.5 -39 q-54 0 -92.5 39t-38.5 94z" />
<glyph unicode="&#x2c6;" horiz-adv-x="921" d="M133 1208l273 254h118l258 -252l-120 -112l-203 180l-213 -180z" />
<glyph unicode="&#x2dc;" horiz-adv-x="921" d="M117 1257q93 154 221 154q48 0 129 -27.5t123 -27.5q75 0 129 61l80 -90q-40 -68 -102 -110.5t-124 -42.5q-40 0 -120 31.5t-125 31.5q-76 0 -131 -59z" />
<glyph unicode="&#x2000;" horiz-adv-x="910" />
<glyph unicode="&#x2001;" horiz-adv-x="1821" />
<glyph unicode="&#x2002;" horiz-adv-x="910" />
<glyph unicode="&#x2003;" horiz-adv-x="1821" />
<glyph unicode="&#x2004;" horiz-adv-x="607" />
<glyph unicode="&#x2005;" horiz-adv-x="455" />
<glyph unicode="&#x2006;" horiz-adv-x="303" />
<glyph unicode="&#x2007;" horiz-adv-x="303" />
<glyph unicode="&#x2008;" horiz-adv-x="227" />
<glyph unicode="&#x2009;" horiz-adv-x="364" />
<glyph unicode="&#x200a;" horiz-adv-x="101" />
<glyph unicode="&#x2010;" horiz-adv-x="831" d="M135 412v217h561v-217h-561z" />
<glyph unicode="&#x2011;" horiz-adv-x="831" d="M135 412v217h561v-217h-561z" />
<glyph unicode="&#x2012;" horiz-adv-x="831" d="M135 412v217h561v-217h-561z" />
<glyph unicode="&#x2013;" horiz-adv-x="1183" d="M141 436v180h901v-180h-901z" />
<glyph unicode="&#x2014;" horiz-adv-x="2207" d="M141 436v180h1925v-180h-1925z" />
<glyph unicode="&#x2018;" horiz-adv-x="442" d="M70 903q3 128 58 269t136 251l166 -51q-123 -211 -123 -469h-237z" />
<glyph unicode="&#x2019;" horiz-adv-x="425" d="M43 948q122 209 125 469h235q-3 -128 -58 -269t-136 -251z" />
<glyph unicode="&#x201a;" horiz-adv-x="446" d="M-8 -233q66 114 93.5 223.5t29.5 240.5h233q-1 -129 -56 -267t-138 -249z" />
<glyph unicode="&#x201c;" horiz-adv-x="821" d="M70 903q3 128 58 269t136 251l166 -51q-123 -211 -123 -469h-237zM451 903q1 128 56.5 269t137.5 251l164 -51q-120 -206 -123 -469h-235z" />
<glyph unicode="&#x201d;" horiz-adv-x="806" d="M43 948q122 209 125 469h235q-3 -128 -58 -269t-136 -251zM422 948q122 209 125 469h235q-1 -128 -56.5 -269t-137.5 -251z" />
<glyph unicode="&#x201e;" horiz-adv-x="827" d="M-8 -233q66 114 93.5 223.5t29.5 240.5h233q-1 -129 -56 -267t-138 -249zM373 -233q67 115 95 224.5t30 239.5h233q-3 -129 -58 -267t-136 -249z" />
<glyph unicode="&#x2022;" horiz-adv-x="643" d="M76 551q0 103 71.5 175.5t174.5 72.5t175 -72.5t72 -175.5t-72 -174.5t-175 -71.5t-174.5 71.5t-71.5 174.5z" />
<glyph unicode="&#x2026;" horiz-adv-x="1456" d="M80 125q0 67 43 106t115 39q69 0 113 -37t44 -108t-41 -109.5t-116 -38.5q-77 0 -117.5 38.5t-40.5 109.5zM571 125q0 67 42 106t114 39q71 0 114.5 -37t43.5 -108t-41 -109.5t-117 -38.5t-116 38.5t-40 109.5zM1063 125q0 67 42 106t114 39q69 0 113 -37t44 -108 t-41 -109.5t-116 -38.5q-77 0 -116.5 38.5t-39.5 109.5z" />
<glyph unicode="&#x202f;" horiz-adv-x="364" />
<glyph unicode="&#x2039;" horiz-adv-x="577" d="M37 479l272 473h211l-213 -467l213 -479h-211z" />
<glyph unicode="&#x203a;" horiz-adv-x="577" d="M59 6l213 479l-213 467h207l277 -473l-277 -473h-207z" />
<glyph unicode="&#x205f;" horiz-adv-x="455" />
<glyph unicode="&#x20ac;" horiz-adv-x="1214" d="M43 406l20 178h138q-2 25 -2 75q0 45 2 68h-138l21 178h143q54 213 204 329t372 116q185 0 348 -86l-80 -215q-134 86 -268 86q-228 0 -295 -230h455l-21 -178h-461q-2 -20 -2 -61q0 -57 2 -82h441l-21 -178h-385q78 -211 307 -211q154 0 289 84l66 -209 q-98 -53 -186 -71.5t-210 -18.5q-456 0 -557 426h-182z" />
<glyph unicode="&#x2122;" horiz-adv-x="1767" d="M12 1196v137h688v-137h-254v-655h-178v655h-256zM741 541v792h213l146 -344l108 -284l109 288l141 340h201v-792h-170v493l-68 -194l-123 -299h-184l-127 288l-90 222l2 -207v-303h-158z" />
<glyph unicode="&#x25fc;" horiz-adv-x="983" d="M0 0v983h983v-983h-983z" />
</font>
</defs>
</svg>
