<?xml version="1.0" standalone="no"?>
<!DOCTYPE svg PUBLIC "-//W3C//DTD SVG 1.1//EN" "http://www.w3.org/Graphics/SVG/1.1/DTD/svg11.dtd" >
<svg xmlns="http://www.w3.org/2000/svg">
<metadata></metadata>
<defs>
<font id="typoninesans_monospacetext" horiz-adv-x="1228" >
<font-face units-per-em="2048" ascent="1597" descent="-451" />
<missing-glyph horiz-adv-x="500" />
<glyph horiz-adv-x="0" />
<glyph horiz-adv-x="682" />
<glyph unicode=" " />
<glyph unicode="!" d="M481 104q0 58 35 90.5t96 32.5q60 0 98 -31.5t38 -91.5q0 -61 -36 -94t-100 -33t-97.5 32.5t-33.5 94.5zM512 877v454h201v-457l-21 -432h-157z" />
<glyph unicode="&#x22;" d="M311 1331h226l-41 -602h-142zM692 1331h226l-41 -602h-142z" />
<glyph unicode="#" d="M61 303l27 131h184l52 275h-203l24 129h201l55 297h170l-55 -297h285l55 297h170l-55 -297h196l-24 -129h-195l-51 -275h213l-27 -131h-209l-55 -303h-170l56 303h-285l-55 -303h-170l55 303h-189zM442 434h285l51 275h-284z" />
<glyph unicode="$" d="M188 131l64 164q65 -44 150 -75t159 -34v420q-42 18 -64 28t-60.5 28.5t-60 33t-51.5 36t-47 43.5t-33.5 49t-24 58.5t-7.5 67.5q0 128 97 215.5t251 102.5v116h111v-114q178 -6 315 -76l-57 -168q-49 35 -118.5 59.5t-139.5 28.5v-364q48 -21 75.5 -33.5t71.5 -35.5 t70 -42.5t58 -50t49.5 -61.5t29.5 -72.5t12 -87.5q0 -132 -101.5 -218.5t-264.5 -107.5v-111h-111v105q-224 3 -373 96zM406 967q0 -55 40 -94.5t115 -75.5v313q-71 -13 -113 -48.5t-42 -94.5zM672 193q79 14 126.5 54.5t47.5 102.5q0 67 -45.5 115.5t-128.5 89.5v-362z" />
<glyph unicode="%" d="M35 1016q0 147 79 240.5t222 93.5q147 0 221 -86.5t74 -247.5q0 -139 -77.5 -235.5t-221.5 -96.5q-146 0 -221.5 85t-75.5 247zM182 1016q0 -95 32.5 -143t119.5 -48q84 0 116.5 48.5t32.5 142.5q0 192 -149 192q-45 0 -76 -14.5t-47 -42.5t-22.5 -60t-6.5 -75zM186 182 l752 1028l92 -63l-751 -1020zM602 311q0 148 76.5 241t218.5 93q147 0 222 -86.5t75 -247.5q0 -139 -78.5 -236.5t-222.5 -97.5q-145 0 -218 85.5t-73 248.5zM743 311q0 -94 32.5 -142t119.5 -48q84 0 118 48.5t34 141.5q0 193 -152 193q-85 0 -118.5 -51.5t-33.5 -141.5z " />
<glyph unicode="&#x26;" d="M41 322q0 140 78 243.5t221 145.5q-41 157 -41 293q0 156 79 251t212 95q40 0 77.5 -9t75 -30t65 -53t45 -83t17.5 -114q0 -81 -27.5 -152t-75.5 -122t-105 -88t-123 -60q65 -208 159 -313q78 131 95 344h370v-156h-250q-37 -158 -129 -283q37 -37 87.5 -60.5t99.5 -23.5 q102 0 164 95l75 -142q-47 -58 -114 -89t-140 -31q-75 0 -155.5 32.5t-143.5 87.5q-62 -58 -140 -89t-157 -31q-141 0 -230 95t-89 247zM225 358q0 -101 47 -156t127 -55q88 0 164 70q-121 150 -190 373q-148 -69 -148 -232zM469 1032q0 -121 35 -264q91 33 137.5 94.5 t46.5 171.5q0 166 -106 166q-50 0 -81.5 -39t-31.5 -129z" />
<glyph unicode="'" d="M502 1331h225l-43 -602h-139z" />
<glyph unicode="(" d="M311 532q0 289 128.5 530t359.5 413l116 -119q-90 -76 -158.5 -156.5t-125.5 -180t-87 -220.5t-30 -256q0 -141 30 -263.5t87.5 -222.5t125.5 -179.5t161 -160.5l-107 -114q-240 170 -370 409.5t-130 519.5z" />
<glyph unicode=")" d="M311 -283q93 81 161 160.5t125.5 179.5t87.5 222.5t30 263.5q0 135 -30.5 256t-87 220.5t-125.5 180t-159 156.5l117 119q230 -172 359 -413.5t129 -529.5q0 -282 -130 -520.5t-370 -408.5z" />
<glyph unicode="*" d="M276 911l256 84q3 -27 27 -51l-182 -186zM276 1090l101 153l188 -176q-32 -16 -35 -55zM520 690l51 248q11 -8 37 -8q21 0 33 6l61 -246h-182zM520 1309h182l-61 -238q-13 8 -33 8q-12 0 -28 -4zM651 944q28 17 31 47l270 -82l-100 -149zM653 1065l199 176l100 -149 l-268 -80q-7 35 -31 53z" />
<glyph unicode="+" d="M188 518v148h342v321h166v-321h344v-148h-344v-328h-166v328h-342z" />
<glyph unicode="," d="M459 -244q116 208 119 441h192q-4 -121 -53 -249t-123 -233z" />
<glyph unicode="-" d="M342 432v182h545v-182h-545z" />
<glyph unicode="." d="M481 104q0 58 35 90.5t96 32.5q60 0 98 -31.5t38 -91.5q0 -61 -36 -94t-100 -33t-97.5 32.5t-33.5 94.5z" />
<glyph unicode="/" d="M211 -86l641 1491h168l-639 -1491h-170z" />
<glyph unicode="0" d="M100 639q0 711 523 711q505 0 505 -652q0 -718 -524 -718q-254 0 -379 164t-125 495zM317 682q0 -298 70 -412l348 879q-66 25 -129 25q-289 0 -289 -492zM496 178q52 -22 122 -22q60 0 107 19t78 55.5t52.5 82t33 107t16 122t4.5 134.5q0 269 -67 379z" />
<glyph unicode="1" d="M164 0v182h354v951l-285 -56v166l496 107v-1168h371v-182h-936z" />
<glyph unicode="2" d="M158 0v141q94 64 201 162.5t205 212t162.5 234.5t64.5 213q0 98 -57.5 154.5t-151.5 56.5q-72 0 -145 -39.5t-128 -102.5l-104 142q20 23 54 49t87 56.5t127 50.5t152 20q172 0 279.5 -97t107.5 -266q0 -97 -54 -212t-142 -222.5t-188 -202t-202 -168.5h645v-182h-913z " />
<glyph unicode="3" d="M168 111l108 170q145 -123 314 -123q105 0 179.5 53t74.5 147q0 85 -62.5 143.5t-160.5 86t-230 33.5v137q161 11 277 79t116 169q0 80 -57.5 122.5t-146.5 42.5q-145 0 -265 -104l-92 145q6 6 18 15t51.5 33t83.5 42t112 33t139 15q164 0 269 -89.5t105 -224.5 q0 -118 -79.5 -200t-214.5 -117q166 -31 260 -125t94 -236q0 -55 -16 -107t-53 -102t-91.5 -87t-138.5 -59.5t-187 -22.5q-131 0 -243.5 43t-163.5 88z" />
<glyph unicode="4" d="M106 309v133l609 889h215v-848h192v-174h-192v-307h-211v307h-613zM313 483h406v590z" />
<glyph unicode="5" d="M178 115l101 170q64 -62 141.5 -95.5t154.5 -33.5q106 0 182.5 60t76.5 167q0 154 -134 220.5t-424 66.5v661h742v-182h-541v-315q287 -3 431.5 -120t144.5 -319q0 -81 -30 -153.5t-88 -132t-155 -94.5t-221 -35q-106 0 -206 36t-175 99z" />
<glyph unicode="6" d="M152 616q0 346 187 539t509 193q74 0 170 -13v-186q-88 16 -162 16q-96 0 -177 -24.5t-146.5 -75t-107 -135t-50.5 -197.5q146 90 299 90q181 0 292 -99.5t111 -283.5q0 -211 -118.5 -335.5t-333.5 -124.5q-129 0 -221.5 44.5t-147 130t-79.5 199t-25 262.5zM369 561 q1 -74 8 -131.5t25 -110.5t48 -87.5t78 -55t113 -20.5q58 0 101.5 21.5t68.5 58.5t37 82t12 96q0 122 -58 176.5t-181 54.5q-77 0 -143 -25t-109 -59z" />
<glyph unicode="7" d="M162 1149v182h905v-121l-557 -1208h-211l530 1147h-667z" />
<glyph unicode="8" d="M147 319q0 216 314 371q-50 30 -75 46.5t-63 44t-56.5 49.5t-39.5 53t-29 65.5t-8 75.5q0 94 60.5 169.5t159 116t213.5 40.5q184 0 297.5 -88.5t113.5 -229.5q0 -163 -284 -319q69 -35 121 -69t104 -79.5t80 -100.5t28 -116q0 -160 -137.5 -264t-335.5 -104 q-93 0 -176 22t-147.5 63.5t-102 107t-37.5 146.5zM362 336q0 -95 73.5 -147t191.5 -52q107 0 173 55t66 144q0 24 -10 48.5t-21.5 43t-38.5 42t-43 36.5t-53 36t-50.5 31t-53.5 31q-49 -27 -85.5 -52.5t-73 -59t-56 -73.5t-19.5 -83zM401 1036q0 -36 10 -62.5t40 -55.5 t64 -53t103 -68q102 69 150.5 121.5t48.5 107.5q0 80 -56.5 121t-144.5 41q-100 0 -157.5 -43t-57.5 -109z" />
<glyph unicode="9" d="M152 891q0 211 118.5 335t333.5 124q103 0 183.5 -29.5t134.5 -83.5t89 -133.5t50.5 -175t15.5 -213.5q0 -347 -187 -540t-509 -193q-81 0 -170 12v188q88 -16 164 -16q95 0 176 24.5t146.5 74.5t107 134.5t49.5 196.5q-148 -88 -299 -88q-181 0 -292 99t-111 284z M369 915q0 -122 58 -176.5t181 -54.5q77 0 143.5 25.5t108.5 60.5q-1 93 -13 161t-40.5 125.5t-83.5 87.5t-135 30q-58 0 -101.5 -21.5t-68.5 -59t-37 -82.5t-12 -96z" />
<glyph unicode=":" d="M481 104q0 58 35 90.5t96 32.5q60 0 98 -31.5t38 -91.5q0 -61 -36 -94t-100 -33t-97.5 32.5t-33.5 94.5zM481 795q0 58 35 90.5t96 32.5q60 0 98 -31.5t38 -91.5q0 -61 -36 -93t-100 -32q-131 0 -131 125z" />
<glyph unicode=";" d="M440 -244q116 208 119 441h193q-4 -120 -53 -248t-124 -234zM522 795q0 58 35.5 90.5t97.5 32.5q60 0 96.5 -31t36.5 -92t-34.5 -93t-98.5 -32q-65 0 -99 32t-34 93z" />
<glyph unicode="&#x3c;" d="M229 520v135l666 467l104 -143l-563 -389l559 -414l-102 -141z" />
<glyph unicode="=" d="M176 328v151h875v-151h-875zM176 717v151h875v-151h-875z" />
<glyph unicode="&#x3e;" d="M229 979l103 143l667 -467v-135l-663 -485l-103 141l558 414z" />
<glyph unicode="?" d="M219 1214q162 136 395 136q112 0 201 -33t142.5 -100t54.5 -158q0 -76 -41 -138.5t-99 -105t-116 -81t-99 -85t-41 -98.5q0 -51 43 -111l-210 -53q-37 84 -37 166q0 46 20.5 88.5t53 76t72 66t79 63t72 61t53 66.5t20.5 73q0 65 -55.5 100t-142.5 35q-164 0 -275 -111z M442 104q0 58 35.5 90.5t97.5 32.5q60 0 97 -31t37 -92t-35.5 -94t-98.5 -33q-64 0 -98.5 32.5t-34.5 94.5z" />
<glyph unicode="@" d="M29 416q0 366 165.5 571t458.5 205q120 0 215 -35t156.5 -95t102.5 -144.5t58 -177.5t17 -201q0 -77 -7 -146.5t-25 -138.5t-45.5 -119t-73 -81t-103.5 -31q-71 0 -119 33.5t-67 95.5q-95 -132 -238 -132q-104 0 -167.5 65t-63.5 177q0 74 31.5 126.5t86.5 79t114 37.5 t130 11q37 0 95 -4l2 88q0 85 -34.5 119.5t-101.5 34.5q-49 0 -90 -22t-41 -73q0 -13 7 -34l-140 -23q-12 38 -12 70q0 98 85 161.5t208 63.5q59 0 107 -14.5t87 -46t60.5 -88t21.5 -134.5l-4 -403q0 -42 21.5 -64t48.5 -22q66 0 89 101.5t23 299.5q0 99 -14 181t-46.5 153 t-82.5 120t-124.5 77t-170.5 28q-244 0 -376 -171t-132 -504q0 -307 131 -472t367 -165q222 0 432 143l49 -90q-219 -158 -499 -158q-129 0 -235.5 45t-187 134.5t-125 234.5t-44.5 334zM457 276q0 -56 32 -84t84 -28q98 0 177 100v133q-43 9 -101 9q-192 0 -192 -130z" />
<glyph unicode="A" d="M43 0l451 1331h237l455 -1331h-232l-104 328h-485l-101 -328h-221zM418 502h379l-193 612z" />
<glyph unicode="B" d="M158 0v1331h458q412 0 412 -323q0 -95 -48 -173t-159 -118v-4q86 -13 148 -45.5t95 -79.5t47.5 -97t14.5 -108q0 -184 -115 -283.5t-335 -99.5h-518zM375 186h266q137 0 197.5 48.5t60.5 158.5t-71.5 161.5t-213.5 51.5h-239v-420zM375 776h194q110 0 172 51.5t62 147.5 q0 174 -221 174h-207v-373z" />
<glyph unicode="C" d="M111 662q0 327 171 507.5t463 180.5q101 0 197.5 -23.5t163.5 -64.5l-72 -193q-123 98 -297 98q-197 0 -297 -127t-100 -374q0 -504 397 -504q96 0 184.5 24.5t147.5 63.5l51 -176q-181 -94 -403 -94q-289 0 -447.5 170t-158.5 512z" />
<glyph unicode="D" d="M115 0v1331h442q140 0 247.5 -33t177.5 -90.5t114.5 -141.5t63 -179t18.5 -211q0 -112 -15 -204t-56.5 -182.5t-110 -152t-182.5 -99.5t-265 -38h-434zM332 186h235q71 0 127.5 13t95.5 35t68 57t45.5 73t26.5 90t13 100.5t3 111.5q0 87 -9 153.5t-34 131t-68 106 t-114 67t-168 25.5h-221v-963z" />
<glyph unicode="E" d="M162 0v1331h923v-182h-706v-377h641v-180h-641v-406h704v-186h-921z" />
<glyph unicode="F" d="M168 0v1331h922v-182h-705v-436h643v-181h-643v-532h-217z" />
<glyph unicode="G" d="M96 662q0 173 47 306t132.5 216t201 124.5t256.5 41.5q199 0 367 -84l-76 -203q-130 104 -297 104q-203 0 -302 -120t-99 -381q0 -270 102 -387t301 -117q84 0 172 31v466h215v-550q-208 -129 -422 -129q-285 0 -441.5 166t-156.5 516z" />
<glyph unicode="H" d="M117 0v1331h217v-555h563v555h217v-1331h-217v584h-563v-584h-217z" />
<glyph unicode="I" d="M143 0v186h363v961h-363v184h951v-184h-371v-961h371v-186h-951z" />
<glyph unicode="J" d="M203 1147v184h796v-794q0 -104 -27 -191t-71 -148.5t-107 -110t-128 -78.5t-142 -51.5t-140.5 -31t-131.5 -14.5l-35 190q61 7 101 13t105.5 21.5t109 35t95 54.5t82 79t51.5 110t21 146v586h-579z" />
<glyph unicode="K" d="M145 0v1331h217v-588l121 31l371 557h248l-447 -641l496 -690h-268l-416 586l-105 -23v-563h-217z" />
<glyph unicode="L" d="M197 0v1331h217v-1145h684v-186h-901z" />
<glyph unicode="M" d="M72 0v1331h196l355 -653l338 653h196v-1331h-184v1001l-271 -534h-163l-289 539v-1006h-178z" />
<glyph unicode="N" d="M104 0v1331h238l580 -983v983h204v-1331h-223l-594 1014v-1014h-205z" />
<glyph unicode="O" d="M55 659q0 156 33 280.5t100 217.5t175 143t251 50q289 0 424.5 -167t135.5 -517q0 -119 -21 -222t-66 -189t-111 -147t-159.5 -94.5t-208.5 -33.5q-553 0 -553 679zM287 659q0 -127 13.5 -213t48 -153t98.5 -99t161 -32q186 0 261 125t75 379q0 134 -14.5 223t-51.5 154 t-101.5 94.5t-162.5 29.5q-96 0 -159 -29.5t-100.5 -95t-52.5 -156.5t-15 -227z" />
<glyph unicode="P" d="M164 0v1331h479q479 0 479 -440q0 -206 -127 -324t-350 -118h-264v-449h-217zM381 629h256q123 0 188.5 59t65.5 195q0 131 -60 198.5t-202 67.5h-248v-520z" />
<glyph unicode="Q" d="M55 659q0 156 33 280.5t100 217.5t175 143t251 50q289 0 424.5 -167t135.5 -517q0 -215 -69.5 -375.5t-207.5 -241.5l340 -354l-180 -121l-328 416q-62 -10 -121 -10q-553 0 -553 679zM287 659q0 -127 13.5 -213t48 -153t98.5 -99t161 -32q186 0 261 125t75 379 q0 134 -14.5 223t-51.5 154t-101.5 94.5t-162.5 29.5q-96 0 -159 -29.5t-100.5 -95t-52.5 -156.5t-15 -227z" />
<glyph unicode="R" d="M145 0v1331h463q252 0 365.5 -106.5t113.5 -311.5q0 -137 -62 -235t-175 -146l297 -532h-256l-258 487h-271v-487h-217zM362 668h240q256 0 256 239q0 129 -61 185.5t-203 56.5h-232v-481z" />
<glyph unicode="S" d="M141 98l74 205q162 -143 385 -143q116 0 188 44.5t72 133.5q0 52 -23.5 93t-63.5 69t-92 51.5t-109 44.5t-114 43.5t-109 53.5t-92 70t-63.5 96.5t-23.5 129.5q0 158 137 259.5t340 101.5q224 0 395 -95l-63 -206q-138 118 -328 118q-118 0 -185 -39.5t-67 -121.5 q0 -44 23.5 -78.5t63.5 -59t92 -46t109.5 -43t114.5 -45t109 -57t92 -75.5t63.5 -103.5t23.5 -136.5q0 -97 -41.5 -171.5t-113 -119.5t-162 -68t-195.5 -23q-252 0 -437 118z" />
<glyph unicode="T" d="M68 1149v182h1093v-182h-438v-1149h-217v1149h-438z" />
<glyph unicode="U" d="M115 475v856h217v-825q0 -195 65.5 -270.5t218.5 -75.5q160 0 223.5 81t63.5 275v815h211v-846q0 -250 -129 -377.5t-377 -127.5q-246 0 -369.5 119.5t-123.5 375.5z" />
<glyph unicode="V" d="M49 1331h225l359 -1112l328 1112h221l-430 -1331h-250z" />
<glyph unicode="W" d="M25 1331h223l104 -1085l185 751h176l207 -753l77 1087h209l-164 -1331h-217l-202 723l-179 -723h-221z" />
<glyph unicode="X" d="M66 0l428 692l-394 639h248l273 -473l276 473h217l-385 -629l436 -702h-247l-314 532l-315 -532h-223z" />
<glyph unicode="Y" d="M74 1331h233l330 -633l303 633h215l-420 -811v-520h-217v518z" />
<glyph unicode="Z" d="M125 0v147l719 1002h-678v182h930v-160l-711 -987h727v-184h-987z" />
<glyph unicode="[" d="M395 -365v1860h441v-145h-254v-1575h254v-140h-441z" />
<glyph unicode="\" d="M211 1405h166l643 -1491h-172z" />
<glyph unicode="]" d="M395 -225h254v1575h-254v145h441v-1860h-441v140z" />
<glyph unicode="^" d="M143 715l402 618h137l403 -618h-176l-301 456l-289 -456h-176z" />
<glyph unicode="_" d="M94 -92h1041v-135h-1041v135z" />
<glyph unicode="`" d="M420 1348l117 137l272 -281l-80 -86z" />
<glyph unicode="a" d="M164 262q0 72 30 126.5t77 87.5t114.5 53.5t133 28t140.5 7.5q12 0 117 -6l2 100q1 101 -43.5 142t-140.5 41q-75 0 -128.5 -27t-53.5 -88q0 -18 6 -39l-187 -26q-14 38 -14 77q0 118 112 192.5t283 74.5q85 0 150.5 -16.5t118.5 -53t81 -102.5q27 -64 27 -152v-6 l-2 -428q0 -54 20.5 -78.5t51.5 -24.5q16 0 37 7l14 -154q-60 -18 -123 -18q-83 0 -133 40t-66 109q-123 -149 -313 -149q-138 0 -224.5 74.5t-86.5 207.5zM383 281q0 -67 43.5 -102.5t116.5 -35.5q72 0 133 35t100 84v160q-74 8 -129 8q-264 0 -264 -149z" />
<glyph unicode="b" d="M164 70v1333h213v-522q67 58 150.5 91.5t164.5 33.5q194 0 304 -133.5t110 -360.5q0 -244 -148 -388t-385 -144q-105 0 -213.5 24t-195.5 66zM377 195q75 -41 188 -41q145 0 230.5 89t85.5 249q0 162 -69 244.5t-183 82.5q-60 0 -127.5 -29.5t-124.5 -80.5v-514z" />
<glyph unicode="c" d="M205 483q0 130 40 231.5t111 164.5t164.5 95t204.5 32q100 0 193.5 -24.5t158.5 -63.5l-67 -189q-57 45 -131.5 73.5t-147.5 28.5q-139 0 -221 -84.5t-82 -261.5q0 -169 84.5 -249t226.5 -80q76 0 153 28.5t124 69.5l57 -172q-72 -47 -176 -74.5t-199 -27.5 q-102 0 -188 28t-156 86t-109.5 157.5t-39.5 231.5z" />
<glyph unicode="d" d="M133 473q0 245 141.5 389t372.5 144q90 0 215 -25v422h213v-1403h-196l-5 129q-65 -65 -157 -107t-180 -42q-192 0 -298 132.5t-106 360.5zM358 494q0 -163 64.5 -244.5t177.5 -81.5q62 0 134.5 32.5t127.5 86.5v495q-82 52 -205 52q-140 0 -219.5 -89t-79.5 -251z" />
<glyph unicode="e" d="M170 496q0 121 38 219t103.5 161t149.5 96.5t178 33.5q97 0 175 -28t138 -85.5t92.5 -153.5t32.5 -225q0 -51 -2 -63h-686q13 -154 101 -227.5t227 -73.5q74 0 158 31.5t135 72.5l55 -170q-179 -104 -397 -104q-104 0 -192 30.5t-157.5 91t-109 161.5t-39.5 233zM391 590 h471v11q0 113 -58 179q-61 70 -161 70q-113 0 -176 -62.5t-76 -197.5z" />
<glyph unicode="f" d="M154 0v172h268v635h-207v149l207 13v65q0 191 107 290t302 99q70 0 144.5 -15t116.5 -38l-37 -180q-38 28 -99.5 45.5t-117.5 17.5q-96 0 -149.5 -54.5t-53.5 -162.5v-67h354v-162h-354v-635h387v-172h-868z" />
<glyph unicode="g" d="M127 475q0 246 147 388.5t383 142.5q220 0 412 -82v-883q0 -504 -512 -504q-204 0 -379 96l74 195q70 -53 153 -85t162 -32q67 0 116 14t90 49t62 103t21 168v105q-65 -61 -153.5 -99.5t-172.5 -38.5q-190 0 -296.5 122.5t-106.5 340.5zM352 496q0 -153 65 -224t177 -71 q62 0 134.5 32.5t127.5 85.5v474q-81 41 -205 41q-141 0 -220 -88t-79 -250z" />
<glyph unicode="h" d="M176 0v1403h213v-535q149 138 338 138q52 0 99 -9.5t93 -34t79.5 -62t54 -98t20.5 -138.5v-664h-213v590q0 124 -50.5 173.5t-147.5 49.5q-66 0 -140.5 -31.5t-132.5 -81.5v-700h-213z" />
<glyph unicode="i" d="M160 0v172h344v637h-344v172h557v-809h352v-172h-909zM487 1309q0 54 36.5 91.5t88.5 37.5q54 0 91.5 -37.5t37.5 -91.5q0 -52 -37.5 -88.5t-91.5 -36.5q-52 0 -88.5 36t-36.5 89z" />
<glyph unicode="j" d="M172 -274q48 0 83 1.5t86 6.5t89 16t82 29t75 46.5t57.5 67t40 93t13.5 120.5v703h-514v172h727v-903q0 -100 -27 -181.5t-70 -136.5t-106 -96t-125.5 -64t-139 -37t-136.5 -18t-127 -4zM682 1309q0 54 36.5 91.5t90.5 37.5q53 0 90 -37.5t37 -91.5q0 -52 -37 -88.5 t-90 -36.5q-54 0 -90.5 36t-36.5 89z" />
<glyph unicode="k" d="M176 0v1403h213v-840l119 27l289 391h233l-350 -461l414 -520h-265l-317 418l-123 -23v-395h-213z" />
<glyph unicode="l" d="M154 0v172h354v1061h-338v170h551v-1231h342v-172h-909z" />
<glyph unicode="m" d="M90 0v981h170l2 -147q56 85 113.5 128.5t128.5 43.5q82 0 127 -42t65 -124q105 166 242 166q117 0 163 -80t46 -250v-676h-186v645q0 117 -18.5 154t-68.5 37q-84 0 -163 -123v-713h-185v645q0 109 -19 150t-65 41q-41 0 -87 -34t-81 -91v-711h-184z" />
<glyph unicode="n" d="M176 0v981h197l4 -125q75 75 168.5 112.5t181.5 37.5q52 0 99 -9.5t93 -34t79.5 -62t54 -98t20.5 -138.5v-664h-213v590q0 125 -50.5 175t-147.5 50q-66 0 -140 -32t-133 -83v-700h-213z" />
<glyph unicode="o" d="M113 496q0 227 138.5 368.5t362.5 141.5q236 0 370 -134t134 -376q0 -145 -59 -261t-174.5 -185.5t-268.5 -69.5q-233 0 -368 134.5t-135 381.5zM338 496q0 -346 272 -346q150 0 216.5 87.5t66.5 258.5q0 159 -67.5 249.5t-215.5 90.5q-139 0 -205.5 -90t-66.5 -250z" />
<glyph unicode="p" d="M164 -451v1432h196l5 -123q66 65 155 106.5t176 41.5q193 0 301.5 -133t108.5 -361q0 -244 -145 -388t-377 -144q-80 0 -207 24v-455h-213zM377 201q74 -47 196 -47q142 0 225 89t83 249q0 163 -67 245t-181 82q-61 0 -130.5 -33t-125.5 -88v-497z" />
<glyph unicode="q" d="M133 473q0 163 70 285t191 185t276 63q214 0 405 -88v-1369h-213v568q-66 -61 -150.5 -99t-166.5 -38q-194 0 -303 133t-109 360zM358 494q0 -162 67.5 -244t180.5 -82q62 0 131 32t125 87v501q-85 46 -198 46q-141 0 -223.5 -89.5t-82.5 -250.5z" />
<glyph unicode="r" d="M96 0v172h326v637h-309v172h501l9 -193q62 98 160.5 152.5t193.5 54.5q31 0 65 -6l-16 -217q-41 14 -96 14q-72 0 -160.5 -46t-134.5 -111v-457h422v-172h-961z" />
<glyph unicode="s" d="M205 61l55 187q57 -45 142.5 -74t175.5 -29q45 0 85 6.5t74.5 20.5t55 39t20.5 59q0 44 -32.5 75t-84.5 50t-115 35.5t-126 38.5t-115 51.5t-84.5 81t-32.5 121.5q0 91 58.5 156.5t150.5 96t205 30.5q108 0 210.5 -20.5t166.5 -57.5l-62 -185q-42 39 -127.5 69t-171.5 30 q-39 0 -73.5 -5t-67.5 -16.5t-52.5 -34t-19.5 -53.5t25.5 -54.5t67.5 -38t95 -31t109 -31.5t109 -40.5t95 -57t67.5 -83t25.5 -116.5q0 -68 -28 -121.5t-73 -86.5t-106.5 -54.5t-123 -30t-128.5 -8.5q-113 0 -211 21.5t-159 59.5z" />
<glyph unicode="t" d="M129 807v149l233 15l27 260h182v-262h416v-162h-416v-457q0 -110 49 -153t142 -43q57 0 120.5 22t114.5 55l39 -174q-142 -77 -323 -77q-75 0 -135.5 16.5t-111.5 53.5t-79.5 104.5t-28.5 160.5v492h-229z" />
<glyph unicode="u" d="M158 322v659h213v-596q0 -126 49 -176.5t141 -50.5q66 0 139.5 35.5t137.5 91.5v696h213v-981h-193l-8 129q-76 -76 -166.5 -114t-177.5 -38q-53 0 -99.5 8.5t-93.5 32t-80 61t-54 100t-21 143.5z" />
<glyph unicode="v" d="M127 981h225l266 -813l265 813h221l-361 -981h-266z" />
<glyph unicode="w" d="M33 981h205l112 -801l187 656h168l186 -656l108 801h201l-205 -981h-217l-166 606l-166 -606h-217z" />
<glyph unicode="x" d="M154 0l344 514l-303 467h229l199 -315l198 315h217l-303 -455l340 -526h-229l-236 377l-245 -377h-211z" />
<glyph unicode="y" d="M127 981h227l273 -768l262 768h213l-535 -1432h-209l150 406z" />
<glyph unicode="z" d="M160 0v131l571 678h-538v172h829v-131l-588 -678h627v-172h-901z" />
<glyph unicode="{" d="M317 494v137q44 0 50 2q129 6 129 102v432q0 57 7 101.5t28 88.5t57 73t96.5 47t142.5 18h86v-131h-75q-56 0 -91 -11t-53 -37.5t-24 -59.5t-6 -87v-321q0 -60 -6.5 -102.5t-23 -81t-49.5 -63.5t-83 -38q90 -18 126 -89.5t36 -190.5v-330q0 -56 4.5 -86.5t21 -57t50 -37 t89.5 -10.5h84v-133h-92q-103 0 -169.5 22t-99.5 68.5t-44.5 100.5t-11.5 137v432q0 52 -30.5 76t-96.5 27q-6 2 -52 2z" />
<glyph unicode="|" d="M530 -20v1425h168v-1425h-168z" />
<glyph unicode="}" d="M317 -238h82q57 0 91 10.5t51 37t21.5 57.5t4.5 86v330q0 78 12.5 132t49.5 95t100 53q-50 13 -83 38t-49.5 63.5t-23 81t-6.5 102.5v321q0 55 -6 87.5t-24 59t-53.5 37.5t-92.5 11h-74v131h84q82 0 143 -18t97 -47t57.5 -73t29 -88.5t7.5 -101.5v-432q0 -53 34 -77 t103 -27h41v-137h-43q-70 -3 -102.5 -27t-32.5 -78v-432q0 -65 -6.5 -111t-27 -89.5t-56 -70t-95 -42t-142.5 -15.5h-91v133z" />
<glyph unicode="~" d="M66 537q79 127 157 174t168 47q65 0 137 -26.5t123 -58.5t107 -58.5t94 -26.5q57 0 100 41t103 139l108 -78q-82 -141 -162.5 -195.5t-169.5 -54.5q-60 0 -124 27t-109.5 59t-105.5 59t-113 27q-54 0 -103.5 -37.5t-105.5 -115.5z" />
<glyph unicode="&#xa0;" />
<glyph unicode="&#xa1;" d="M479 840q0 61 35.5 94t99.5 33t97.5 -32.5t33.5 -94.5q0 -58 -35 -90.5t-96 -32.5q-60 0 -97.5 31.5t-37.5 91.5zM514 70l21 432h157l23 -434v-455h-201v457z" />
<glyph unicode="&#xa2;" d="M215 483q0 218 112.5 355t301.5 161v164h127v-159q137 -8 258 -72l-68 -193q-89 74 -190 86v-667q111 12 198 86l58 -172q-110 -71 -256 -88v-136h-127v134q-190 15 -302 144.5t-112 356.5zM438 485q0 -262 191 -317v649q-93 -25 -142 -109t-49 -223z" />
<glyph unicode="&#xa3;" d="M76 0v131q88 10 142 88.5t54 167.5v203h-174v149h174v144q0 114 36.5 204.5t99.5 147t143 86t172 29.5q198 0 334 -115l-96 -156q-59 56 -111 78.5t-117 22.5q-250 0 -250 -295v-146h455v-149h-455v-121q0 -101 -29 -171.5t-106 -125.5h420q113 0 175.5 36t105.5 101 l104 -135q-16 -30 -41 -57.5t-65 -55t-99 -44.5t-129 -17h-743z" />
<glyph unicode="&#xa4;" d="M158 172l200 199q-53 83 -53 170q0 88 53 161q-188 188 -200 199l82 86l204 -201q79 48 166 48q88 0 170 -50l207 201l84 -82l-205 -201q54 -68 54 -161q0 -91 -54 -168l205 -201l-86 -74l-203 195q-71 -49 -168 -49q-86 0 -170 49l-202 -197zM465 539q0 -70 41 -114 t108 -44q66 0 107 45.5t41 112.5q0 68 -40 110.5t-108 42.5q-69 0 -109 -42t-40 -111z" />
<glyph unicode="&#xa5;" d="M74 1331h233l330 -633l303 633h215l-371 -715h263v-149h-312v-148h312v-149h-312v-170h-217v170h-313v149h313v148h-313v149h260z" />
<glyph unicode="&#xa6;" d="M530 -20v612h170v-612h-170zM530 815v590h170v-590h-170z" />
<glyph unicode="&#xa7;" d="M127 -403l4 182q57 -37 119.5 -56.5t109.5 -19.5q45 0 83.5 8t71.5 26t52.5 49.5t20.5 74.5q0 74 -56.5 222t-124 289t-124 289t-56.5 222q1 109 62.5 200.5t157 148t204.5 87.5t213 31q122 0 238 -27l-4 -180q-60 37 -138.5 60.5t-138.5 23.5q-71 0 -108 -43.5 t-37 -118.5q0 -68 55.5 -216t121.5 -291t121.5 -291t55.5 -216q0 -95 -49 -177t-124.5 -136.5t-169 -93.5t-181.5 -56.5t-162 -17.5q-119 0 -217 27zM375 911q0 -63 36.5 -165.5t88 -213.5t103 -224t88 -224t36.5 -186q0 -62 -25 -101q94 45 139 101.5t46 136.5 q-1 66 -37 171.5t-87.5 218.5t-102.5 227t-87 224t-36 183q0 66 36 115q-93 -45 -145.5 -120.5t-52.5 -142.5z" />
<glyph unicode="&#xa8;" d="M315 1278q0 47 34 81t81 34t81 -34t34 -81t-34 -80t-81 -33t-81 33t-34 80zM684 1278q0 47 34 81t81 34t80.5 -34t33.5 -81t-33.5 -80t-80.5 -33t-81 33t-34 80z" />
<glyph unicode="&#xa9;" d="M12 641q0 181 75.5 331t213.5 238t309 88q176 0 316 -88t216.5 -237.5t76.5 -331.5q0 -180 -74 -328.5t-214.5 -237.5t-320.5 -89q-171 0 -309 88.5t-213.5 238t-75.5 328.5zM104 641q0 -253 143 -414t363 -161q155 0 273 74t180.5 204.5t62.5 296.5q0 158 -62.5 288.5 t-181.5 209t-272 78.5q-150 0 -265.5 -74t-178 -205t-62.5 -297zM217 637q0 201 119.5 311.5t316.5 110.5q146 0 250 -58l-51 -133q-92 70 -203 70q-129 0 -198.5 -76t-69.5 -221q0 -148 69 -221.5t199 -73.5q122 0 225 64l37 -127q-122 -58 -274 -58q-200 0 -310 102.5 t-110 309.5z" />
<glyph unicode="&#xaa;" d="M240 778q0 53 23 93.5t60 65.5t88.5 41t103.5 22t110 6q41 0 61 -2h37v81q0 132 -135 132q-48 0 -90 -19.5t-43 -60.5q0 -14 6 -35l-158 -21q-14 35 -14 66q0 89 90.5 146t224.5 57q63 0 115 -13t94.5 -41.5t66.5 -78.5t25 -119l-2 -332q0 -71 43 -74q9 0 33 8l10 -122 q-59 -15 -102 -15q-62 0 -101 27.5t-51 75.5q-100 -103 -246 -103q-112 0 -180.5 57.5t-68.5 157.5zM426 801q0 -105 117 -105q52 0 99.5 24t80.5 58v133q-40 7 -105 7q-83 0 -137.5 -29t-54.5 -88z" />
<glyph unicode="&#xab;" d="M184 479l267 473h176l-219 -465l219 -481h-176zM602 479l264 473h176l-219 -465l219 -481h-176z" />
<glyph unicode="&#xac;" d="M66 539v133h1087v-553h-158v420h-929z" />
<glyph unicode="&#xad;" d="M342 432v182h545v-182h-545z" />
<glyph unicode="&#xae;" d="M121 846q0 137 66 253t178.5 183.5t244.5 67.5q135 0 249 -67.5t180.5 -183.5t66.5 -253q0 -212 -144.5 -357t-351.5 -145q-132 0 -244.5 67.5t-178.5 183t-66 251.5zM203 846q0 -190 119 -310t288 -120q181 0 297.5 119.5t116.5 310.5q0 176 -118.5 303t-295.5 127 q-176 0 -291.5 -120.5t-115.5 -309.5zM393 528v648h225q133 0 192.5 -54t59.5 -155q0 -70 -34 -119.5t-95 -73.5l127 -246h-141l-104 226h-101v-226h-129zM522 846h90q60 0 91.5 27t31.5 92q0 63 -27.5 88.5t-99.5 25.5h-86v-233z" />
<glyph unicode="&#xaf;" d="M352 1214v142h525v-142h-525z" />
<glyph unicode="&#xb0;" d="M326 1079q0 120 80.5 195.5t209.5 75.5q132 0 209.5 -72.5t77.5 -198.5q0 -125 -78.5 -199.5t-208.5 -74.5q-132 0 -211 74.5t-79 199.5zM453 1079q0 -76 44 -124t119 -48q76 0 117 48t41 124t-41.5 121t-116.5 45q-77 0 -120 -44.5t-43 -121.5z" />
<glyph unicode="&#xb1;" d="M188 -4v145h852v-145h-852zM188 547v145h342v295h166v-295h344v-145h-344v-289h-166v289h-342z" />
<glyph unicode="&#xb4;" d="M420 1204l272 281l117 -137l-309 -230z" />
<glyph unicode="&#xb5;" d="M178 -451v1432h213v-596q0 -127 44.5 -176t135.5 -49q124 0 267 125v696h213v-981h-193l-8 129q-152 -152 -334 -152q-49 0 -97.5 11.5t-72.5 36.5q45 -99 45 -218v-258h-213z" />
<glyph unicode="&#xb6;" d="M135 801q0 103 39 196.5t113.5 168.5t195 120t271.5 45v-1782h-174v740q-212 59 -328.5 195.5t-116.5 316.5zM920 -451v1782h174v-1782h-174z" />
<glyph unicode="&#xb7;" d="M485 604q0 54 36.5 89.5t90.5 35.5q55 0 93 -35t38 -90q0 -57 -37.5 -92t-93.5 -35q-55 0 -91 35t-36 92z" />
<glyph unicode="&#xb8;" d="M403 -424l46 119q51 -51 126 -51q45 0 70 18.5t25 50.5q0 41 -41 66t-123 28l57 216h111l-35 -138q91 -14 138.5 -63.5t47.5 -116.5q0 -81 -68.5 -128.5t-168.5 -47.5q-108 0 -185 47z" />
<glyph unicode="&#xba;" d="M215 958q0 172 108.5 282t290.5 110q192 0 296 -104t104 -288q0 -168 -106.5 -281.5t-293.5 -113.5t-293 103.5t-106 291.5zM408 958q0 -128 46.5 -192t157.5 -64q118 0 163.5 64t45.5 192q0 118 -46.5 186t-162.5 68q-111 0 -157.5 -67t-46.5 -187z" />
<glyph unicode="&#xbb;" d="M184 6l222 481l-222 465h176l267 -473l-267 -473h-176zM602 6l219 481l-219 465h176l264 -473l-264 -473h-176z" />
<glyph unicode="&#xbf;" d="M217 -113q0 64 29.5 119.5t73 92t95 74t95 67.5t73 70.5t29.5 84.5q0 51 -43 111l211 53q37 -84 37 -166q0 -53 -27.5 -102t-68.5 -85t-89.5 -75t-89.5 -71.5t-68.5 -74.5t-27.5 -85q0 -65 56 -100.5t143 -35.5q164 0 275 111l90 -143q-161 -135 -396 -135 q-112 0 -200.5 32.5t-142 99.5t-54.5 158zM520 842q0 61 35 94t98 33q64 0 98.5 -32.5t34.5 -94.5q0 -58 -35.5 -90.5t-97.5 -32.5q-60 0 -96.5 31t-36.5 92z" />
<glyph unicode="&#xc0;" d="M43 0l451 1331h237l455 -1331h-232l-104 328h-485l-101 -328h-221zM313 1567l78 168l357 -219l-52 -105zM418 502h379l-193 612z" />
<glyph unicode="&#xc1;" d="M43 0l451 1331h237l455 -1331h-232l-104 328h-485l-101 -328h-221zM418 502h379l-193 612zM459 1516l358 219l76 -168l-381 -156z" />
<glyph unicode="&#xc2;" d="M43 0l451 1331h237l455 -1331h-232l-104 328h-485l-101 -328h-221zM311 1536l252 205h105l250 -201l-82 -108l-226 159l-221 -159zM418 502h379l-193 612z" />
<glyph unicode="&#xc3;" d="M43 0l451 1331h237l455 -1331h-232l-104 328h-485l-101 -328h-221zM268 1544q97 142 211 142q52 0 137 -30t125 -30q77 0 131 64l68 -76q-40 -64 -96 -101.5t-115 -37.5q-42 0 -127.5 30.5t-128.5 30.5q-79 0 -135 -63zM418 502h379l-193 612z" />
<glyph unicode="&#xc4;" d="M43 0l451 1331h237l455 -1331h-232l-104 328h-485l-101 -328h-221zM295 1589q0 47 34 81t81 34t80.5 -34t33.5 -81t-33.5 -80.5t-80.5 -33.5t-81 33.5t-34 80.5zM418 502h379l-193 612zM684 1589q0 47 34 81t81 34t80.5 -34t33.5 -81t-33.5 -80.5t-80.5 -33.5t-81 33.5 t-34 80.5z" />
<glyph unicode="&#xc5;" d="M43 0l451 1331h237l455 -1331h-232l-104 328h-485l-101 -328h-221zM397 1610q0 94 64 148t157 54q94 0 153.5 -52.5t59.5 -149.5q0 -86 -59.5 -145.5t-157.5 -59.5q-99 0 -158 56.5t-59 148.5zM418 502h379l-193 612zM516 1610q0 -103 98 -103q97 0 97 103q0 102 -97 102 q-52 0 -75 -25t-23 -77z" />
<glyph unicode="&#xc6;" d="M10 0l500 1331h700v-182h-403v-377h338v-180h-338v-406h401v-186h-598v297h-278l-101 -297h-221zM389 465h221v649z" />
<glyph unicode="&#xc7;" d="M111 662q0 327 171 507.5t463 180.5q101 0 197.5 -23.5t163.5 -64.5l-72 -193q-123 98 -297 98q-197 0 -297 -127t-100 -374q0 -504 397 -504q96 0 184.5 24.5t147.5 63.5l51 -176q-165 -86 -358 -92l-25 -97q91 -14 139 -63.5t48 -116.5q0 -81 -68.5 -128.5 t-169.5 -47.5q-107 0 -184 47l45 119q51 -51 127 -51q45 0 69.5 18t24.5 51q0 41 -41 66t-123 28l47 177q-259 18 -399.5 186.5t-140.5 491.5z" />
<glyph unicode="&#xc8;" d="M162 0v1331h923v-182h-706v-377h641v-180h-641v-406h704v-186h-921zM340 1567l78 168l356 -219l-51 -105z" />
<glyph unicode="&#xc9;" d="M162 0v1331h923v-182h-706v-377h641v-180h-641v-406h704v-186h-921zM459 1516l358 219l76 -168l-381 -156z" />
<glyph unicode="&#xca;" d="M162 0v1331h923v-182h-706v-377h641v-180h-641v-406h704v-186h-921zM338 1536l252 205h104l250 -201l-82 -108l-225 159l-221 -159z" />
<glyph unicode="&#xcb;" d="M162 0v1331h923v-182h-706v-377h641v-180h-641v-406h704v-186h-921zM328 1589q0 47 33.5 81t80.5 34t81 -34t34 -81t-34 -80.5t-81 -33.5t-80.5 33.5t-33.5 80.5zM717 1589q0 47 33.5 81t80.5 34t81 -34t34 -81t-34 -80.5t-81 -33.5t-80.5 33.5t-33.5 80.5z" />
<glyph unicode="&#xcc;" d="M143 0v186h363v961h-363v184h951v-184h-371v-961h371v-186h-951zM313 1567l78 168l357 -219l-52 -105z" />
<glyph unicode="&#xcd;" d="M143 0v186h363v961h-363v184h951v-184h-371v-961h371v-186h-951zM449 1516l358 219l76 -168l-381 -156z" />
<glyph unicode="&#xce;" d="M143 0v186h363v961h-363v184h951v-184h-371v-961h371v-186h-951zM303 1536l252 205h104l250 -201l-82 -108l-225 159l-221 -159z" />
<glyph unicode="&#xcf;" d="M143 0v186h363v961h-363v184h951v-184h-371v-961h371v-186h-951zM301 1589q0 47 34 81t81 34t80.5 -34t33.5 -81t-33.5 -80.5t-80.5 -33.5t-81 33.5t-34 80.5zM690 1589q0 47 34 81t81 34t81 -34t34 -81t-34 -80.5t-81 -33.5t-81 33.5t-34 80.5z" />
<glyph unicode="&#xd0;" d="M2 592v168h113v571h442q140 0 247.5 -33t177.5 -90.5t114.5 -141.5t63 -179t18.5 -211q0 -112 -15 -204t-56.5 -182.5t-110 -152t-182.5 -99.5t-265 -38h-434v592h-113zM332 186h235q71 0 127.5 13t95.5 35t68 57t45.5 73t26.5 90t13 100.5t3 111.5q0 87 -9 153.5 t-34 131t-68 106t-114 67t-168 25.5h-221v-389h221v-168h-221v-406z" />
<glyph unicode="&#xd1;" d="M104 0v1331h238l580 -983v983h204v-1331h-223l-594 1014v-1014h-205zM305 1544q97 142 211 142q52 0 137 -30t125 -30q77 0 131 64l68 -76q-40 -64 -96 -101.5t-115 -37.5q-42 0 -127.5 30.5t-128.5 30.5q-79 0 -135 -63z" />
<glyph unicode="&#xd2;" d="M55 659q0 156 33 280.5t100 217.5t175 143t251 50q289 0 424.5 -167t135.5 -517q0 -119 -21 -222t-66 -189t-111 -147t-159.5 -94.5t-208.5 -33.5q-553 0 -553 679zM287 659q0 -127 13.5 -213t48 -153t98.5 -99t161 -32q186 0 261 125t75 379q0 134 -14.5 223t-51.5 154 t-101.5 94.5t-162.5 29.5q-96 0 -159 -29.5t-100.5 -95t-52.5 -156.5t-15 -227zM324 1567l77 168l357 -219l-51 -105z" />
<glyph unicode="&#xd3;" d="M55 659q0 156 33 280.5t100 217.5t175 143t251 50q289 0 424.5 -167t135.5 -517q0 -119 -21 -222t-66 -189t-111 -147t-159.5 -94.5t-208.5 -33.5q-553 0 -553 679zM287 659q0 -127 13.5 -213t48 -153t98.5 -99t161 -32q186 0 261 125t75 379q0 134 -14.5 223t-51.5 154 t-101.5 94.5t-162.5 29.5q-96 0 -159 -29.5t-100.5 -95t-52.5 -156.5t-15 -227zM459 1516l358 219l76 -168l-381 -156z" />
<glyph unicode="&#xd4;" d="M55 659q0 156 33 280.5t100 217.5t175 143t251 50q289 0 424.5 -167t135.5 -517q0 -119 -21 -222t-66 -189t-111 -147t-159.5 -94.5t-208.5 -33.5q-553 0 -553 679zM287 659q0 -127 13.5 -213t48 -153t98.5 -99t161 -32q186 0 261 125t75 379q0 134 -14.5 223t-51.5 154 t-101.5 94.5t-162.5 29.5q-96 0 -159 -29.5t-100.5 -95t-52.5 -156.5t-15 -227zM330 1536l252 205h104l250 -201l-82 -108l-225 159l-221 -159z" />
<glyph unicode="&#xd5;" d="M55 659q0 156 33 280.5t100 217.5t175 143t251 50q289 0 424.5 -167t135.5 -517q0 -119 -21 -222t-66 -189t-111 -147t-159.5 -94.5t-208.5 -33.5q-553 0 -553 679zM283 1544q97 142 211 142q52 0 137 -30t125 -30q77 0 131 64l67 -76q-40 -64 -96 -101.5t-115 -37.5 q-42 0 -127.5 30.5t-128.5 30.5q-79 0 -135 -63zM287 659q0 -127 13.5 -213t48 -153t98.5 -99t161 -32q186 0 261 125t75 379q0 134 -14.5 223t-51.5 154t-101.5 94.5t-162.5 29.5q-96 0 -159 -29.5t-100.5 -95t-52.5 -156.5t-15 -227z" />
<glyph unicode="&#xd6;" d="M55 659q0 156 33 280.5t100 217.5t175 143t251 50q289 0 424.5 -167t135.5 -517q0 -119 -21 -222t-66 -189t-111 -147t-159.5 -94.5t-208.5 -33.5q-553 0 -553 679zM287 659q0 -127 13.5 -213t48 -153t98.5 -99t161 -32q186 0 261 125t75 379q0 134 -14.5 223t-51.5 154 t-101.5 94.5t-162.5 29.5q-96 0 -159 -29.5t-100.5 -95t-52.5 -156.5t-15 -227zM297 1589q0 47 34 81t81 34t80.5 -34t33.5 -81t-33.5 -80.5t-80.5 -33.5t-81 33.5t-34 80.5zM686 1589q0 47 34 81t81 34t80.5 -34t33.5 -81t-33.5 -80.5t-80.5 -33.5t-81 33.5t-34 80.5z" />
<glyph unicode="&#xd7;" d="M264 350l240 225l-238 224l115 108l235 -223l238 225l109 -102l-240 -221l242 -232l-115 -106l-242 227l-235 -225z" />
<glyph unicode="&#xd8;" d="M41 -10l135 182q-121 170 -121 487q0 156 33 280.5t100 217.5t175 143t251 50q232 0 363 -107l74 98h141l-135 -182q117 -165 117 -493q0 -119 -21 -222t-66 -189t-111 -147t-159.5 -94.5t-208.5 -33.5q-216 0 -348 104l-70 -94h-149zM287 659q0 -205 30 -299l537 717 q-78 90 -240 90q-96 0 -159 -29.5t-100.5 -95t-52.5 -156.5t-15 -227zM379 246q75 -84 229 -84q186 0 261 125t75 379q0 196 -33 299z" />
<glyph unicode="&#xd9;" d="M115 475v856h217v-825q0 -195 65.5 -270.5t218.5 -75.5q160 0 223.5 81t63.5 275v815h211v-846q0 -250 -129 -377.5t-377 -127.5q-246 0 -369.5 119.5t-123.5 375.5zM350 1567l78 168l356 -219l-51 -105z" />
<glyph unicode="&#xda;" d="M115 475v856h217v-825q0 -195 65.5 -270.5t218.5 -75.5q160 0 223.5 81t63.5 275v815h211v-846q0 -250 -129 -377.5t-377 -127.5q-246 0 -369.5 119.5t-123.5 375.5zM459 1516l358 219l76 -168l-381 -156z" />
<glyph unicode="&#xdb;" d="M115 475v856h217v-825q0 -195 65.5 -270.5t218.5 -75.5q160 0 223.5 81t63.5 275v815h211v-846q0 -250 -129 -377.5t-377 -127.5q-246 0 -369.5 119.5t-123.5 375.5zM313 1536l252 205h105l250 -201l-82 -108l-226 159l-221 -159z" />
<glyph unicode="&#xdc;" d="M115 475v856h217v-825q0 -195 65.5 -270.5t218.5 -75.5q160 0 223.5 81t63.5 275v815h211v-846q0 -250 -129 -377.5t-377 -127.5q-246 0 -369.5 119.5t-123.5 375.5zM299 1589q0 47 34 81t81 34t80.5 -34t33.5 -81t-33.5 -80.5t-80.5 -33.5t-81 33.5t-34 80.5zM688 1589 q0 47 34 81t81 34t81 -34t34 -81t-34 -80.5t-81 -33.5t-81 33.5t-34 80.5z" />
<glyph unicode="&#xdd;" d="M74 1331h233l330 -633l303 633h215l-420 -811v-520h-217v518zM455 1516l358 219l76 -168l-381 -156z" />
<glyph unicode="&#xde;" d="M160 0v1331h217v-170h213q477 0 477 -436q0 -206 -127.5 -327.5t-347.5 -121.5h-215v-276h-217zM377 465h205q123 0 189.5 60t66.5 196q0 129 -60.5 192.5t-204.5 63.5h-196v-512z" />
<glyph unicode="&#xdf;" d="M37 807v149l131 13v49q0 105 36 185t98.5 126.5t139 70t164.5 23.5q199 0 297 -82t98 -215q0 -42 -19.5 -80.5t-49 -66.5t-63.5 -58t-63.5 -55.5t-49 -58t-19.5 -66.5q0 -35 25 -63t65 -47.5t88.5 -39t97.5 -45t89 -58.5t65 -86t25 -121q0 -81 -31.5 -141.5t-86.5 -94 t-120.5 -49.5t-142.5 -16q-181 0 -313 81l53 187q37 -40 107.5 -71.5t142.5 -31.5q83 0 131.5 30.5t48.5 94.5q0 39 -25 68.5t-65 49t-88.5 38t-96.5 42t-88 53.5t-65 80.5t-25 115.5q0 60 26 111t62.5 86t73 66.5t62.5 65.5t26 68q0 62 -47.5 100.5t-136.5 38.5 q-221 0 -221 -266v-987h-205v807h-131z" />
<glyph unicode="&#xe0;" d="M164 262q0 72 30 126.5t77 87.5t114.5 53.5t133 28t140.5 7.5q12 0 117 -6l2 100q1 101 -43.5 142t-140.5 41q-75 0 -128.5 -27t-53.5 -88q0 -18 6 -39l-187 -26q-14 38 -14 77q0 118 112 192.5t283 74.5q85 0 150.5 -16.5t118.5 -53t81 -102.5t27 -158l-2 -428 q0 -54 20.5 -78.5t51.5 -24.5q16 0 37 7l14 -154q-60 -18 -123 -18q-83 0 -133 40t-66 109q-123 -149 -313 -149q-138 0 -224.5 74.5t-86.5 207.5zM315 1348l117 137l273 -281l-80 -86zM383 281q0 -67 43.5 -102.5t116.5 -35.5q72 0 133 35t100 84v160q-74 8 -129 8 q-264 0 -264 -149z" />
<glyph unicode="&#xe1;" d="M164 262q0 72 30 126.5t77 87.5t114.5 53.5t133 28t140.5 7.5q12 0 117 -6l2 100q1 101 -43.5 142t-140.5 41q-75 0 -128.5 -27t-53.5 -88q0 -18 6 -39l-187 -26q-14 38 -14 77q0 118 112 192.5t283 74.5q85 0 150.5 -16.5t118.5 -53t81 -102.5t27 -158l-2 -428 q0 -54 20.5 -78.5t51.5 -24.5q16 0 37 7l14 -154q-60 -18 -123 -18q-83 0 -133 40t-66 109q-123 -149 -313 -149q-138 0 -224.5 74.5t-86.5 207.5zM383 281q0 -67 43.5 -102.5t116.5 -35.5q72 0 133 35t100 84v160q-74 8 -129 8q-264 0 -264 -149zM475 1204l273 281 l116 -137l-309 -230z" />
<glyph unicode="&#xe2;" d="M164 262q0 72 30 126.5t77 87.5t114.5 53.5t133 28t140.5 7.5q12 0 117 -6l2 100q1 101 -43.5 142t-140.5 41q-75 0 -128.5 -27t-53.5 -88q0 -18 6 -39l-187 -26q-14 38 -14 77q0 118 112 192.5t283 74.5q85 0 150.5 -16.5t118.5 -53t81 -102.5t27 -158l-2 -428 q0 -54 20.5 -78.5t51.5 -24.5q16 0 37 7l14 -154q-60 -18 -123 -18q-83 0 -133 40t-66 109q-123 -149 -313 -149q-138 0 -224.5 74.5t-86.5 207.5zM281 1196l264 250h104l254 -246l-104 -98l-207 190l-213 -190zM383 281q0 -67 43.5 -102.5t116.5 -35.5q72 0 133 35t100 84 v160q-74 8 -129 8q-264 0 -264 -149z" />
<glyph unicode="&#xe3;" d="M164 262q0 72 30 126.5t77 87.5t114.5 53.5t133 28t140.5 7.5q12 0 117 -6l2 100q1 101 -43.5 142t-140.5 41q-75 0 -128.5 -27t-53.5 -88q0 -18 6 -39l-187 -26q-14 38 -14 77q0 118 112 192.5t283 74.5q85 0 150.5 -16.5t118.5 -53t81 -102.5t27 -158l-2 -428 q0 -54 20.5 -78.5t51.5 -24.5q16 0 37 7l14 -154q-60 -18 -123 -18q-83 0 -133 40t-66 109q-123 -149 -313 -149q-138 0 -224.5 74.5t-86.5 207.5zM264 1253q95 142 211 142q52 0 127 -29t115 -29q79 0 131 64l67 -78q-41 -64 -96 -101.5t-114 -37.5q-42 0 -117.5 31.5 t-118.5 31.5q-76 0 -135 -63zM383 281q0 -67 43.5 -102.5t116.5 -35.5q72 0 133 35t100 84v160q-74 8 -129 8q-264 0 -264 -149z" />
<glyph unicode="&#xe4;" d="M164 262q0 72 30 126.5t77 87.5t114.5 53.5t133 28t140.5 7.5q12 0 117 -6l2 100q1 101 -43.5 142t-140.5 41q-75 0 -128.5 -27t-53.5 -88q0 -18 6 -39l-187 -26q-14 38 -14 77q0 118 112 192.5t283 74.5q85 0 150.5 -16.5t118.5 -53t81 -102.5t27 -158l-2 -428 q0 -54 20.5 -78.5t51.5 -24.5q16 0 37 7l14 -154q-60 -18 -123 -18q-83 0 -133 40t-66 109q-123 -149 -313 -149q-138 0 -224.5 74.5t-86.5 207.5zM291 1278q0 47 34 81t81 34t80.5 -34t33.5 -81t-33.5 -80t-80.5 -33t-81 33t-34 80zM383 281q0 -67 43.5 -102.5t116.5 -35.5 q72 0 133 35t100 84v160q-74 8 -129 8q-264 0 -264 -149zM659 1278q0 47 34 81t81 34t81 -34t34 -81t-34 -80t-81 -33t-81 33t-34 80z" />
<glyph unicode="&#xe5;" d="M164 262q0 72 30 126.5t77 87.5t114.5 53.5t133 28t140.5 7.5q12 0 117 -6l2 100q1 101 -43.5 142t-140.5 41q-75 0 -128.5 -27t-53.5 -88q0 -18 6 -39l-187 -26q-14 38 -14 77q0 118 112 192.5t283 74.5q85 0 150.5 -16.5t118.5 -53t81 -102.5t27 -158l-2 -428 q0 -54 20.5 -78.5t51.5 -24.5q16 0 37 7l14 -154q-60 -18 -123 -18q-83 0 -133 40t-66 109q-123 -149 -313 -149q-138 0 -224.5 74.5t-86.5 207.5zM373 1315q0 94 64.5 148.5t156.5 54.5q93 0 153 -52.5t60 -150.5q0 -86 -59.5 -145.5t-157.5 -59.5q-99 0 -158 56.5 t-59 148.5zM383 281q0 -67 43.5 -102.5t116.5 -35.5q72 0 133 35t100 84v160q-74 8 -129 8q-264 0 -264 -149zM492 1315q0 -103 98 -103q51 0 73.5 26t22.5 77q0 52 -23 77t-73 25q-52 0 -75 -25t-23 -77z" />
<glyph unicode="&#xe6;" d="M16 260q0 67 24.5 120t64.5 85.5t94.5 54t109.5 29.5t115 8q51 0 74 -2q0 31 10 76l2 41q0 95 -33 134.5t-106 39.5q-55 0 -95 -27.5t-40 -87.5q0 -15 8 -43l-160 -26q-12 44 -12 83q0 116 88 188.5t229 72.5q183 0 242 -123q90 123 246 123q169 0 245 -123t78 -391v-41 h-514q4 -146 66 -223.5t161 -77.5q130 0 228 94l49 -170q-139 -94 -301 -94q-216 0 -318 186q-53 -92 -129 -139t-163 -47q-120 0 -191.5 74t-71.5 206zM201 279q0 -67 35 -104.5t92 -37.5q63 0 114.5 38.5t83.5 96.5q-22 68 -28 150q-37 6 -82 6q-215 0 -215 -149zM686 590 h332v26q0 108 -36.5 174t-107.5 66q-88 0 -132.5 -65.5t-55.5 -200.5z" />
<glyph unicode="&#xe7;" d="M205 483q0 130 40 231.5t111 164.5t164.5 95t204.5 32q100 0 193.5 -24.5t158.5 -63.5l-67 -189q-57 45 -131.5 73.5t-147.5 28.5q-139 0 -221 -84.5t-82 -261.5q0 -169 84.5 -249t226.5 -80q76 0 153 28.5t124 69.5l57 -172q-61 -40 -147 -66t-172 -34l-25 -99 q91 -14 138.5 -63.5t47.5 -116.5q0 -81 -68.5 -128.5t-168.5 -47.5q-107 0 -184 47l45 119q51 -51 127 -51q45 0 69.5 18t24.5 51q0 41 -41 66t-123 28l47 177q-93 7 -170 39t-138.5 90.5t-95.5 153t-34 218.5z" />
<glyph unicode="&#xe8;" d="M170 496q0 121 38 219t103.5 161t149.5 96.5t178 33.5q97 0 175 -28t138 -85.5t92.5 -153.5t32.5 -225q0 -51 -2 -63h-686q13 -154 101 -227.5t227 -73.5q74 0 158 31.5t135 72.5l55 -170q-179 -104 -397 -104q-104 0 -192 30.5t-157.5 91t-109 161.5t-39.5 233zM391 590 h471q3 121 -58 190.5t-161 69.5q-113 0 -176 -62.5t-76 -197.5zM395 1348l117 137l272 -281l-79 -86z" />
<glyph unicode="&#xe9;" d="M170 496q0 121 38 219t103.5 161t149.5 96.5t178 33.5q97 0 175 -28t138 -85.5t92.5 -153.5t32.5 -225q0 -51 -2 -63h-686q13 -154 101 -227.5t227 -73.5q74 0 158 31.5t135 72.5l55 -170q-179 -104 -397 -104q-104 0 -192 30.5t-157.5 91t-109 161.5t-39.5 233zM391 590 h471q3 121 -58 190.5t-161 69.5q-113 0 -176 -62.5t-76 -197.5zM502 1204l272 281l117 -137l-309 -230z" />
<glyph unicode="&#xea;" d="M170 496q0 121 38 219t103.5 161t149.5 96.5t178 33.5q97 0 175 -28t138 -85.5t92.5 -153.5t32.5 -225q0 -51 -2 -63h-686q13 -154 101 -227.5t227 -73.5q74 0 158 31.5t135 72.5l55 -170q-179 -104 -397 -104q-104 0 -192 30.5t-157.5 91t-109 161.5t-39.5 233z M340 1196l264 250h105l254 -246l-105 -98l-207 190l-213 -190zM391 590h471q3 121 -58 190.5t-161 69.5q-113 0 -176 -62.5t-76 -197.5z" />
<glyph unicode="&#xeb;" d="M170 496q0 121 38 219t103.5 161t149.5 96.5t178 33.5q97 0 175 -28t138 -85.5t92.5 -153.5t32.5 -225q0 -51 -2 -63h-686q13 -154 101 -227.5t227 -73.5q74 0 158 31.5t135 72.5l55 -170q-179 -104 -397 -104q-104 0 -192 30.5t-157.5 91t-109 161.5t-39.5 233z M358 1278q0 47 34 81t81 34t81 -34t34 -81t-34 -80t-81 -33t-81 33t-34 80zM391 590h471q3 121 -58 190.5t-161 69.5q-113 0 -176 -62.5t-76 -197.5zM727 1278q0 47 34 81t81 34t80.5 -34t33.5 -81t-33.5 -80t-80.5 -33t-81 33t-34 80z" />
<glyph unicode="&#xec;" d="M160 0v172h344v637h-344v172h557v-809h352v-172h-909zM340 1348l117 137l272 -281l-80 -86z" />
<glyph unicode="&#xed;" d="M160 0v172h344v637h-344v172h557v-809h352v-172h-909zM455 1204l272 281l117 -137l-309 -230z" />
<glyph unicode="&#xee;" d="M160 0v172h344v637h-344v172h557v-809h352v-172h-909zM297 1196l264 250h105l254 -246l-105 -98l-207 190l-213 -190z" />
<glyph unicode="&#xef;" d="M160 0v172h344v637h-344v172h557v-809h352v-172h-909zM315 1278q0 47 34 81t81 34t81 -34t34 -81t-34 -80t-81 -33t-81 33t-34 80zM684 1278q0 47 34 81t81 34t80.5 -34t33.5 -81t-33.5 -80t-80.5 -33t-81 33t-34 80z" />
<glyph unicode="&#xf0;" d="M129 494q0 216 124 352.5t331 136.5q101 0 180 -43q-83 126 -193 211l-102 -117l-98 68l102 121q-62 38 -106 59l102 135q70 -34 119 -63l90 106l102 -74l-88 -98q397 -281 408 -764q0 -4 1 -15t1 -15q0 -104 -32 -196.5t-92 -163.5t-153.5 -112.5t-208.5 -41.5 q-229 0 -358 135t-129 379zM352 496q0 -346 258 -346q145 0 205 85.5t62 251.5q0 151 -37 273q-94 65 -222 65q-143 0 -204.5 -86t-61.5 -243z" />
<glyph unicode="&#xf1;" d="M176 0v981h197l4 -125q75 75 168.5 112.5t181.5 37.5q52 0 99 -9.5t93 -34t79.5 -62t54 -98t20.5 -138.5v-664h-213v590q0 125 -50.5 175t-147.5 50q-66 0 -140 -32t-133 -83v-700h-213zM289 1253q95 142 211 142q52 0 126.5 -29t114.5 -29q79 0 131 64l68 -78 q-40 -64 -96 -101.5t-115 -37.5q-42 0 -117 31.5t-118 31.5q-77 0 -136 -63z" />
<glyph unicode="&#xf2;" d="M113 496q0 227 138.5 368.5t362.5 141.5q236 0 370 -134t134 -376q0 -145 -59 -261t-174.5 -185.5t-268.5 -69.5q-233 0 -368 134.5t-135 381.5zM322 1348l116 137l273 -281l-80 -86zM338 496q0 -346 272 -346q150 0 216.5 87.5t66.5 258.5q0 159 -67.5 249.5 t-215.5 90.5q-139 0 -205.5 -90t-66.5 -250z" />
<glyph unicode="&#xf3;" d="M113 496q0 227 138.5 368.5t362.5 141.5q236 0 370 -134t134 -376q0 -145 -59 -261t-174.5 -185.5t-268.5 -69.5q-233 0 -368 134.5t-135 381.5zM338 496q0 -346 272 -346q150 0 216.5 87.5t66.5 258.5q0 159 -67.5 249.5t-215.5 90.5q-139 0 -205.5 -90t-66.5 -250z M461 1204l272 281l117 -137l-309 -230z" />
<glyph unicode="&#xf4;" d="M113 496q0 227 138.5 368.5t362.5 141.5q236 0 370 -134t134 -376q0 -145 -59 -261t-174.5 -185.5t-268.5 -69.5q-233 0 -368 134.5t-135 381.5zM301 1196l264 250h105l254 -246l-105 -98l-207 190l-213 -190zM338 496q0 -346 272 -346q150 0 216.5 87.5t66.5 258.5 q0 159 -67.5 249.5t-215.5 90.5q-139 0 -205.5 -90t-66.5 -250z" />
<glyph unicode="&#xf5;" d="M113 496q0 227 138.5 368.5t362.5 141.5q236 0 370 -134t134 -376q0 -145 -59 -261t-174.5 -185.5t-268.5 -69.5q-233 0 -368 134.5t-135 381.5zM285 1253q95 142 211 142q52 0 126.5 -29t114.5 -29q79 0 131 64l68 -78q-40 -64 -96 -101.5t-115 -37.5q-42 0 -117.5 31.5 t-118.5 31.5q-76 0 -135 -63zM338 496q0 -346 272 -346q150 0 216.5 87.5t66.5 258.5q0 159 -67.5 249.5t-215.5 90.5q-139 0 -205.5 -90t-66.5 -250z" />
<glyph unicode="&#xf6;" d="M113 496q0 227 138.5 368.5t362.5 141.5q236 0 370 -134t134 -376q0 -145 -59 -261t-174.5 -185.5t-268.5 -69.5q-233 0 -368 134.5t-135 381.5zM311 1278q0 47 34 81t81 34t81 -34t34 -81t-34 -80t-81 -33t-81 33t-34 80zM338 496q0 -346 272 -346q150 0 216.5 87.5 t66.5 258.5q0 159 -67.5 249.5t-215.5 90.5q-139 0 -205.5 -90t-66.5 -250zM680 1278q0 47 34 81t81 34t80.5 -34t33.5 -81t-33.5 -80t-80.5 -33t-81 33t-34 80z" />
<glyph unicode="&#xf7;" d="M227 518v148h774v-148h-774zM500 299q0 48 33.5 82.5t80.5 34.5t82 -35t35 -82t-35 -81t-82 -34t-80.5 34t-33.5 81zM500 879q0 47 33.5 81.5t80.5 34.5t82 -34.5t35 -81.5t-35 -81t-82 -34t-80.5 34t-33.5 81z" />
<glyph unicode="&#xf8;" d="M113 496q0 227 138.5 368.5t362.5 141.5q165 0 283 -70l47 59h150l-105 -129q129 -135 129 -370q0 -145 -59 -261t-174.5 -185.5t-268.5 -69.5q-166 0 -282 67l-45 -57h-150l105 129q-131 137 -131 377zM338 496q0 -132 39 -211l401 503q-68 48 -168 48 q-139 0 -205.5 -90t-66.5 -250zM451 193q61 -43 159 -43q150 0 216.5 87.5t66.5 258.5q0 121 -39 200z" />
<glyph unicode="&#xf9;" d="M158 322v659h213v-596q0 -126 49 -176.5t141 -50.5q66 0 139.5 35.5t137.5 91.5v696h213v-981h-193l-8 129q-76 -76 -166.5 -114t-177.5 -38q-53 0 -99.5 8.5t-93.5 32t-80 61t-54 100t-21 143.5zM354 1348l117 137l272 -281l-79 -86z" />
<glyph unicode="&#xfa;" d="M158 322v659h213v-596q0 -126 49 -176.5t141 -50.5q66 0 139.5 35.5t137.5 91.5v696h213v-981h-193l-8 129q-76 -76 -166.5 -114t-177.5 -38q-53 0 -99.5 8.5t-93.5 32t-80 61t-54 100t-21 143.5zM481 1204l273 281l116 -137l-309 -230z" />
<glyph unicode="&#xfb;" d="M158 322v659h213v-596q0 -126 49 -176.5t141 -50.5q66 0 139.5 35.5t137.5 91.5v696h213v-981h-193l-8 129q-76 -76 -166.5 -114t-177.5 -38q-53 0 -99.5 8.5t-93.5 32t-80 61t-54 100t-21 143.5zM303 1196l264 250h105l254 -246l-105 -98l-207 190l-213 -190z" />
<glyph unicode="&#xfc;" d="M158 322v659h213v-596q0 -126 49 -176.5t141 -50.5q66 0 139.5 35.5t137.5 91.5v696h213v-981h-193l-8 129q-76 -76 -166.5 -114t-177.5 -38q-53 0 -99.5 8.5t-93.5 32t-80 61t-54 100t-21 143.5zM330 1278q0 47 33.5 81t80.5 34t81 -34t34 -81t-34 -80t-81 -33t-80.5 33 t-33.5 80zM698 1278q0 47 34 81t81 34t81 -34t34 -81t-34 -80t-81 -33t-81 33t-34 80z" />
<glyph unicode="&#xfd;" d="M127 981h227l273 -768l262 768h213l-535 -1432h-209l150 406zM489 1204l273 281l117 -137l-310 -230z" />
<glyph unicode="&#xfe;" d="M154 -451v1854h213v-545q63 69 143 108.5t162 39.5q192 0 297.5 -132.5t105.5 -361.5q0 -245 -142.5 -388.5t-373.5 -143.5q-85 0 -192 22v-453h-213zM367 201q74 -47 182 -47q141 0 221 88.5t80 249.5q0 163 -64.5 244t-177.5 81q-119 0 -241 -119v-497z" />
<glyph unicode="&#xff;" d="M127 981h227l273 -768l262 768h213l-535 -1432h-209l150 406zM332 1278q0 47 33.5 81t80.5 34t81 -34t34 -81t-34 -80t-81 -33t-80.5 33t-33.5 80zM700 1278q0 47 34 81t81 34t81 -34t34 -81t-34 -80t-81 -33t-81 33t-34 80z" />
<glyph unicode="&#x152;" d="M39 657q0 125 15 226.5t49.5 190t89 148.5t137.5 94t190 34q68 0 142 -19h530v-182h-352v-377h286v-180h-286v-406h350v-186h-539q-78 -20 -137 -20q-110 0 -192 30t-135.5 85t-87 140.5t-47 187t-13.5 234.5zM270 657q0 -122 11.5 -210t39 -154.5t75.5 -99.5t118 -33 q67 0 119 16v973q-50 20 -113 20q-133 0 -191.5 -125t-58.5 -387z" />
<glyph unicode="&#x153;" d="M14 494q0 237 89.5 374.5t256.5 137.5q203 0 283 -179q81 179 254 179q59 0 106.5 -15.5t88 -51t68 -91.5t42.5 -140.5t15 -193.5q0 -45 -3 -63h-487q8 -151 65 -230.5t158 -79.5t199 90l57 -147q-115 -104 -274 -104q-97 0 -172.5 45.5t-120.5 136.5q-99 -182 -277 -182 q-173 0 -260.5 130t-87.5 384zM186 496q0 -84 8.5 -146t28 -111.5t55 -74.5t87.5 -25q53 0 90.5 25.5t58.5 74.5t30 111.5t9 145.5q0 350 -191 350q-50 0 -85.5 -26.5t-55 -76t-27.5 -109.5t-8 -138zM727 590h324q5 126 -35.5 198t-116.5 72q-83 0 -123 -65.5t-49 -204.5z " />
<glyph unicode="&#x178;" d="M74 1331h233l330 -633l303 633h215l-420 -811v-520h-217v518zM328 1589q0 47 33.5 81t80.5 34t81 -34t34 -81t-34 -80.5t-81 -33.5t-80.5 33.5t-33.5 80.5zM717 1589q0 47 33.5 81t80.5 34t81 -34t34 -81t-34 -80.5t-81 -33.5t-80.5 33.5t-33.5 80.5z" />
<glyph unicode="&#x2c6;" d="M303 1196l264 250h105l254 -246l-105 -98l-207 190l-213 -190z" />
<glyph unicode="&#x2dc;" d="M289 1253q95 142 211 142q52 0 126.5 -29t114.5 -29q79 0 131 64l68 -78q-40 -64 -96 -101.5t-115 -37.5q-42 0 -117 31.5t-118 31.5q-77 0 -136 -63z" />
<glyph unicode="&#x2000;" horiz-adv-x="906" />
<glyph unicode="&#x2001;" horiz-adv-x="1812" />
<glyph unicode="&#x2002;" horiz-adv-x="906" />
<glyph unicode="&#x2003;" horiz-adv-x="1812" />
<glyph unicode="&#x2004;" horiz-adv-x="604" />
<glyph unicode="&#x2005;" horiz-adv-x="453" />
<glyph unicode="&#x2006;" horiz-adv-x="302" />
<glyph unicode="&#x2007;" horiz-adv-x="302" />
<glyph unicode="&#x2008;" horiz-adv-x="226" />
<glyph unicode="&#x2009;" horiz-adv-x="362" />
<glyph unicode="&#x200a;" horiz-adv-x="100" />
<glyph unicode="&#x2010;" d="M342 432v182h545v-182h-545z" />
<glyph unicode="&#x2011;" d="M342 432v182h545v-182h-545z" />
<glyph unicode="&#x2012;" d="M342 432v182h545v-182h-545z" />
<glyph unicode="&#x2013;" d="M164 455v149h901v-149h-901z" />
<glyph unicode="&#x2014;" d="M0 455v149h1229v-149h-1229z" />
<glyph unicode="&#x2018;" d="M457 864q3 129 54.5 302.5t119.5 271.5l141 -41q-58 -101 -88 -248.5t-33 -284.5h-194z" />
<glyph unicode="&#x2019;" d="M457 899q57 102 86.5 250t31.5 281h197q-5 -131 -56.5 -304t-119.5 -270z" />
<glyph unicode="&#x201a;" d="M459 -326q57 103 87 247.5t32 275.5h192q-5 -130 -56 -298.5t-120 -265.5z" />
<glyph unicode="&#x201c;" d="M279 864q5 131 56.5 304t119.5 270l139 -41q-57 -102 -87 -251t-32 -282h-196zM635 864q3 129 54.5 302.5t119.5 271.5l141 -41q-58 -101 -88 -248.5t-33 -284.5h-194z" />
<glyph unicode="&#x201d;" d="M279 899q58 101 87 247.5t33 283.5h195q-3 -129 -54.5 -302.5t-119.5 -271.5zM635 899q57 102 87 250.5t32 280.5h196q-5 -131 -56.5 -304t-119.5 -270z" />
<glyph unicode="&#x201e;" d="M279 -326q58 101 87.5 244.5t32.5 278.5h191q-3 -128 -54.5 -297t-119.5 -267zM639 -326q57 103 87 247.5t32 275.5h192q-5 -130 -56 -298.5t-120 -265.5z" />
<glyph unicode="&#x2022;" d="M446 514q0 71 54 119q50 41 108 41q74 0 129 -58q45 -48 45 -110q0 -73 -55 -119q-44 -41 -106 -41q-78 0 -129 57q-46 49 -46 111z" />
<glyph unicode="&#x2026;" d="M63 100q0 58 32.5 89.5t90.5 31.5q56 0 90.5 -30.5t34.5 -90.5q0 -61 -33 -92t-92 -31q-123 0 -123 123zM489 100q0 58 33.5 89.5t89.5 31.5q57 0 91 -30.5t34 -90.5q0 -61 -32.5 -92t-92.5 -31q-123 0 -123 123zM918 100q0 58 32.5 89.5t89.5 31.5q56 0 90.5 -30.5 t34.5 -90.5t-33.5 -91.5t-91.5 -31.5q-122 0 -122 123z" />
<glyph unicode="&#x202f;" horiz-adv-x="362" />
<glyph unicode="&#x2039;" d="M393 479l264 473h179l-222 -465l222 -481h-179z" />
<glyph unicode="&#x203a;" d="M393 6l219 481l-219 465h176l267 -473l-267 -473h-176z" />
<glyph unicode="&#x205f;" horiz-adv-x="453" />
<glyph unicode="&#x20ac;" d="M61 426l21 147h135q-2 27 -2 84t2 86h-135l20 148h136q51 222 197 340.5t370 118.5q191 0 338 -80l-68 -185q-127 84 -268 84t-223 -69t-115 -209h500l-21 -148h-499q-3 -41 -3 -79q0 -48 3 -91h473l-21 -147h-430q35 -136 121 -202t227 -66q79 0 157 22.5t136 57.5 l55 -175q-87 -47 -174.5 -65t-204.5 -18q-466 0 -552 446h-175z" />
<glyph unicode="&#x2122;" d="M25 1221v112h415v-112h-147v-603h-123v603h-145zM475 618v717h146l139 -346l82 -233l78 235l137 344h139v-717h-117v484l-53 -170l-127 -314h-121l-127 302l-69 190v-492h-107z" />
<glyph unicode="&#x25fc;" horiz-adv-x="983" d="M0 0v983h983v-983h-983z" />
</font>
</defs>
</svg>
