<?xml version="1.0" standalone="no"?>
<!DOCTYPE svg PUBLIC "-//W3C//DTD SVG 1.1//EN" "http://www.w3.org/Graphics/SVG/1.1/DTD/svg11.dtd" >
<svg xmlns="http://www.w3.org/2000/svg">
<metadata></metadata>
<defs>
<font id="typoninesans_monospacebold" horiz-adv-x="1228" >
<font-face units-per-em="2048" ascent="1597" descent="-451" />
<missing-glyph horiz-adv-x="500" />
<glyph horiz-adv-x="0" />
<glyph horiz-adv-x="682" />
<glyph unicode=" " />
<glyph unicode="!" d="M424 154q0 82 50 129t138 47q86 0 138.5 -45t52.5 -131q0 -85 -49 -131t-142 -46q-94 0 -141 45.5t-47 131.5zM465 889v442h297v-444l-29 -375h-239z" />
<glyph unicode="&#x22;" d="M238 1331h331l-55 -682h-221zM659 1331h330l-55 -682h-221z" />
<glyph unicode="#" d="M20 272l41 189h160l39 201h-176l41 188h172l53 270h260l-53 -270h215l53 270h260l-53 -270h176l-41 -188h-172l-39 -201h189l-41 -189h-184l-54 -272h-260l53 272h-215l-53 -272h-260l53 272h-164zM481 461h215l39 201h-215z" />
<glyph unicode="$" d="M154 150l88 231q76 -49 160 -82t147 -39v318q-39 17 -58.5 26t-57 27t-57.5 30.5t-51.5 33t-49 37.5t-39 41t-32.5 48t-18.5 53.5t-7.5 61.5q0 139 101.5 234t269.5 114v107h139v-105q169 -9 332 -94l-78 -242q-132 95 -254 111v-262q47 -19 77 -32.5t74.5 -37t73.5 -45 t62.5 -53.5t52.5 -65.5t32 -78t13 -94.5q0 -144 -105.5 -235t-279.5 -115v-96h-139v90q-227 4 -395 113zM457 963q0 -54 92 -103v195q-92 -22 -92 -92zM688 270q111 26 111 101q0 73 -111 139v-240z" />
<glyph unicode="%" d="M23 991q0 162 79.5 260.5t210.5 98.5q133 0 207 -89.5t74 -269.5q0 -155 -81 -255.5t-208 -100.5q-129 0 -205.5 93t-76.5 263zM217 991q0 -78 20.5 -115.5t71.5 -37.5q49 0 69.5 37t20.5 116t-20.5 117.5t-69.5 38.5q-51 0 -71.5 -37t-20.5 -119zM248 213l606 995 l125 -75l-610 -986zM641 336q0 164 75.5 261t205.5 97q133 0 207.5 -89t74.5 -269q0 -154 -81.5 -255t-207.5 -101q-128 0 -201 92.5t-73 263.5zM827 336q0 -78 21 -116t72 -38q48 0 69 37.5t21 116.5q0 78 -21 117t-69 39q-51 0 -72 -37t-21 -119z" />
<glyph unicode="&#x26;" d="M29 330q0 140 73.5 240t202.5 145q-43 139 -43 270q0 162 87.5 263.5t234.5 101.5q55 0 108 -15.5t102 -48t79 -93t30 -140.5q0 -77 -27 -147t-73 -123t-100 -93t-115 -67q63 -173 112 -213q41 115 50 260h389v-230h-234q-26 -87 -80 -168q58 -43 121 -43q47 0 90 24.5 t72 68.5l102 -197q-54 -68 -128.5 -106.5t-151.5 -38.5q-69 0 -153.5 29t-141.5 73q-55 -48 -134 -75t-151 -27q-134 0 -227.5 94.5t-93.5 255.5zM295 381q0 -62 30.5 -103.5t90.5 -41.5q42 0 82 24q-95 135 -144 283q-27 -27 -43 -72t-16 -90zM506 1008q0 -82 29 -201 q57 24 84.5 69t27.5 123q0 127 -69 127q-72 0 -72 -118z" />
<glyph unicode="'" d="M449 1331h331l-55 -682h-221z" />
<glyph unicode="(" d="M268 553q0 276 132 529t364 429l192 -180q-169 -138 -275 -338.5t-106 -421.5q0 -448 383 -780l-167 -170q-253 173 -388 421t-135 511z" />
<glyph unicode=")" d="M268 -209q383 332 383 780q0 221 -106 421.5t-275 338.5l193 180q232 -176 363.5 -429t131.5 -529q0 -172 -57.5 -339.5t-176.5 -322.5t-288 -270z" />
<glyph unicode="*" d="M244 942l262 68q0 -43 29 -72l-150 -209zM244 1077l139 213l172 -200q-42 -17 -49 -70zM479 1331h262l-94 -241q-21 12 -47 12q-17 0 -37 -8zM481 688l70 238q19 -13 49 -13q28 0 51 13l90 -238h-260zM653 1085l191 201l139 -207l-287 -59q-6 39 -43 65zM666 938 q32 25 32 68l285 -66l-139 -209z" />
<glyph unicode="+" d="M178 465v207h316v309h239v-309h316v-207h-316v-311h-239v311h-316z" />
<glyph unicode="," d="M403 -219q74 120 101.5 236t27.5 259h291q0 -140 -64 -291.5t-157 -267.5z" />
<glyph unicode="-" d="M322 383v264h585v-264h-585z" />
<glyph unicode="." d="M424 154q0 82 50 129t138 47q86 0 138.5 -45t52.5 -131q0 -85 -49 -131t-142 -46q-94 0 -141 45.5t-47 131.5z" />
<glyph unicode="/" d="M166 -39l655 1444h242l-647 -1444h-250z" />
<glyph unicode="0" d="M90 637q0 136 17.5 245t57 197.5t101.5 147.5t152.5 91t208.5 32q265 0 387.5 -168t122.5 -492q0 -128 -13.5 -229t-50 -193.5t-95 -154t-153.5 -97.5t-221 -36q-263 0 -388.5 154.5t-125.5 502.5zM418 676q0 -190 16 -270l236 677q-40 9 -62 9q-56 0 -93.5 -28.5 t-58.5 -85.5t-29.5 -129t-8.5 -173zM571 242q12 -2 45 -2q48 0 82 17.5t55.5 49t33 87t16 119.5t4.5 159q0 139 -10 215z" />
<glyph unicode="1" d="M147 0v270h310v760l-252 -33v244l573 109v-1080h322v-270h-953z" />
<glyph unicode="2" d="M141 0v197q85 50 181 135.5t180 185.5t139 211.5t55 200.5q0 74 -36.5 118t-112.5 44q-65 0 -129.5 -39t-116.5 -103l-149 215q7 8 19.5 20t56.5 44t94 56.5t129.5 44.5t164.5 20q193 0 304.5 -104.5t111.5 -278.5q0 -96 -41.5 -197t-113 -191t-156 -167.5t-180.5 -141.5 h544v-270h-944z" />
<glyph unicode="3" d="M139 127l154 254q76 -67 144 -102t165 -35q72 0 116 32.5t44 96.5q0 101 -111 153t-289 54v196q146 7 246.5 64t100.5 131q0 61 -41 90t-105 29q-130 0 -241 -119l-140 209q6 7 18.5 18.5t56 40.5t92.5 51.5t128 41t164 18.5q177 0 287 -96t110 -242q0 -99 -70 -176 t-186 -113q141 -35 224.5 -126.5t83.5 -231.5q0 -54 -16.5 -106.5t-54.5 -103.5t-93.5 -89.5t-142 -62t-191.5 -23.5q-151 0 -267 45t-186 102z" />
<glyph unicode="4" d="M90 252v180l555 899h320v-825h172v-254h-172v-252h-320v252h-555zM395 506h250v428z" />
<glyph unicode="5" d="M143 129l146 254q134 -143 282 -143q71 0 129 41t58 108q0 44 -13 77t-46 62t-88 47t-142.5 28.5t-206.5 10.5v717h793v-270h-494v-213q132 0 234 -35t164.5 -96t94 -138.5t31.5 -168.5q0 -83 -33 -159t-95 -137t-163 -97.5t-225 -36.5q-241 0 -426 149z" />
<glyph unicode="6" d="M137 616q0 354 183 545t491 191q102 0 227 -25v-276q-129 34 -229 34q-291 0 -334 -278q112 51 197 51q199 0 309.5 -105t110.5 -298q0 -222 -121 -348.5t-348 -126.5q-133 0 -228 43t-151 127t-81.5 198t-25.5 268zM465 561q0 -173 34.5 -247t139.5 -74q70 0 99.5 54 t29.5 136q0 90 -38.5 129t-113.5 39q-41 0 -78.5 -9t-55.5 -19z" />
<glyph unicode="7" d="M145 1061v270h936v-172l-514 -1159h-317l473 1061h-578z" />
<glyph unicode="8" d="M127 336q0 102 81.5 192.5t194.5 149.5q-116 71 -175.5 143.5t-59.5 179.5q0 97 63.5 178t168 126t223.5 45q193 0 315.5 -95.5t122.5 -242.5q0 -151 -246 -301q128 -61 207.5 -153.5t79.5 -195.5q0 -167 -137 -274.5t-357 -107.5q-219 0 -350 92t-131 264zM453 354 q0 -72 45.5 -111.5t128.5 -39.5q70 0 110.5 39.5t40.5 107.5q0 49 -47.5 96.5t-136.5 106.5q-141 -105 -141 -199zM492 1016q0 -47 31.5 -86.5t97.5 -89.5q116 101 116 164q0 52 -31 82t-90 30q-64 0 -94 -30t-30 -70z" />
<glyph unicode="9" d="M137 874q0 222 121 349t348 127q133 0 228 -43t151 -127.5t81.5 -198.5t25.5 -268q0 -354 -183 -545t-491 -191q-103 0 -228 25v277q133 -35 230 -35q291 0 334 278q-112 -51 -197 -51q-199 0 -309.5 105t-110.5 298zM461 899q0 -90 38 -129t113 -39q41 0 79 9.5t55 18.5 l18 9q0 174 -35 248t-139 74q-70 0 -99.5 -54.5t-29.5 -136.5z" />
<glyph unicode=":" d="M424 154q0 82 50 129t138 47q86 0 138.5 -45t52.5 -131q0 -85 -49 -131t-142 -46q-94 0 -141 45.5t-47 131.5zM424 774q0 82 50 129t138 47q86 0 138.5 -45t52.5 -131q0 -85 -49 -130.5t-142 -45.5q-188 0 -188 176z" />
<glyph unicode=";" d="M387 -219q74 120 101.5 236t27.5 259h291q0 -140 -64 -291.5t-157 -267.5zM463 774q0 82 50 129t138 47q86 0 138.5 -45t52.5 -131q0 -85 -49 -130.5t-142 -45.5q-188 0 -188 176z" />
<glyph unicode="&#x3c;" d="M197 487v199l677 459l156 -217l-516 -342l508 -371l-154 -211z" />
<glyph unicode="=" d="M178 289v217h871v-217h-871zM178 637v217h871v-217h-871z" />
<glyph unicode="&#x3e;" d="M197 928l155 217l678 -459v-199l-672 -483l-153 211l508 371z" />
<glyph unicode="?" d="M190 1210q179 140 431 140q113 0 204.5 -31.5t151.5 -103t61 -173.5q0 -56 -26 -104.5t-65 -81t-84 -65t-84 -58.5t-65 -59.5t-26 -69.5q0 -47 47 -100l-309 -76q-41 97 -41 178q0 54 31 106t75.5 92.5t89.5 77.5t76 74.5t31 69.5q0 40 -31.5 62t-85.5 22 q-146 0 -258 -104zM412 154q0 82 50 129t138 47q86 0 138.5 -45t52.5 -131q0 -85 -49 -131t-142 -46q-94 0 -141 45.5t-47 131.5z" />
<glyph unicode="@" d="M20 416q0 363 169.5 566.5t459.5 203.5q139 0 247 -49.5t176 -139t103 -209t35 -264.5q0 -92 -14 -176.5t-45.5 -163.5t-91 -126.5t-141.5 -47.5q-78 0 -132.5 38t-78.5 112q-35 -80 -91 -116t-116 -36q-106 0 -170 68t-64 198q0 67 23.5 117.5t60 80.5t88.5 49 t101.5 25.5t105.5 6.5h47l2 35q0 69 -19.5 96t-70.5 27q-37 0 -63.5 -18t-26.5 -54q0 -7 4 -23l-196 -36q-15 44 -15 82q0 113 89.5 187.5t228.5 74.5q149 0 227 -76.5t78 -251.5l-4 -375q0 -71 49 -71q31 0 51.5 32t29.5 91t12 110.5t3 120.5q0 547 -426 547 q-242 0 -364.5 -161.5t-122.5 -479.5q0 -153 36.5 -270.5t101 -189t149 -107.5t184.5 -36q189 0 379 132l59 -119q-207 -146 -457 -146q-98 0 -184 26t-161.5 83t-129 142t-84.5 210.5t-31 280.5zM508 291q0 -35 19 -52.5t44 -17.5q73 0 121 88v82q-18 2 -51 2 q-67 0 -100 -23t-33 -79z" />
<glyph unicode="A" d="M8 0l418 1331h371l424 -1331h-351l-73 272h-383l-68 -272h-338zM477 528h252l-131 488z" />
<glyph unicode="B" d="M127 0v1331h494q99 0 175.5 -18t124.5 -47.5t79 -71.5t43 -85t12 -93q0 -34 -4 -62.5t-17.5 -65t-35.5 -65.5t-62.5 -57t-95.5 -47v-4q90 -10 154 -41t98 -77t48.5 -95t14.5 -105q0 -189 -119 -293t-319 -104h-590zM457 272h186q89 0 129.5 34.5t40.5 111.5q0 81 -49 115 t-156 34h-151v-295zM457 815h84q95 0 134.5 31t39.5 106q0 111 -158 111h-100v-248z" />
<glyph unicode="C" d="M102 668q0 322 171.5 502t467.5 180q205 0 385 -111l-108 -272q-82 64 -148 89t-147 25q-270 0 -270 -407q0 -213 66 -320.5t212 -107.5q169 0 328 110l76 -258q-117 -63 -219.5 -90.5t-219.5 -27.5q-293 0 -443.5 177.5t-150.5 510.5z" />
<glyph unicode="D" d="M80 0v1331h436q184 0 313.5 -42.5t206 -128t110.5 -203t34 -279.5q0 -73 -7 -137t-26 -134.5t-49.5 -128t-82 -110.5t-119 -89t-164 -57.5t-214.5 -21.5h-438zM410 272h125q57 0 101.5 10.5t75.5 27.5t52.5 46t33.5 58.5t18.5 74t8.5 82.5t2 93q0 62 -2.5 104.5t-10 88 t-21 74.5t-37 56.5t-57.5 42.5t-82 24t-111 9h-96v-791z" />
<glyph unicode="E" d="M133 0v1331h967v-268h-637v-252h579v-266h-579v-273h635v-272h-965z" />
<glyph unicode="F" d="M145 0v1331h942v-268h-612v-320h563v-266h-563v-477h-330z" />
<glyph unicode="G" d="M78 670q0 170 49.5 301.5t139.5 213.5t210 123.5t266 41.5q106 0 193 -20t194 -70l-112 -295q-83 66 -146 91t-143 25q-150 0 -225.5 -95t-75.5 -312q0 -228 79.5 -328t235.5 -100q43 0 66 4v409h324v-553q-234 -126 -457 -126q-303 0 -450.5 177t-147.5 513z" />
<glyph unicode="H" d="M84 0v1331h330v-520h403v520h330v-1331h-330v524h-403v-524h-330z" />
<glyph unicode="I" d="M104 0v272h345v787h-345v272h1020v-272h-346v-787h346v-272h-1020z" />
<glyph unicode="J" d="M207 178q63 5 112 12.5t105.5 21t98.5 32t82.5 48t66.5 67t41.5 90.5t15.5 118v492h-504v272h834v-811q0 -100 -26.5 -185t-71.5 -147.5t-108 -112.5t-133.5 -83t-151.5 -55.5t-157 -33t-155 -12.5z" />
<glyph unicode="K" d="M106 0v1331h330v-536l80 26l256 510h367l-344 -631l387 -700h-402l-278 543l-66 -17v-526h-330z" />
<glyph unicode="L" d="M178 0v1331h330v-1059h612v-272h-942z" />
<glyph unicode="M" d="M61 0v1331h285l275 -551l274 551h270v-1331h-266v807l-168 -356h-223l-186 395v-846h-261z" />
<glyph unicode="N" d="M66 0v1331h358l432 -799v799h307v-1331h-334l-454 852l2 -852h-311z" />
<glyph unicode="O" d="M51 651q0 123 19 227t61.5 192t106.5 149.5t158 96t212 34.5q146 0 250 -35.5t177.5 -115.5t109 -212t35.5 -321q0 -120 -18 -220t-60 -187.5t-106.5 -148t-162.5 -95.5t-223 -35q-284 0 -421.5 168.5t-137.5 502.5zM401 651q0 -74 2.5 -123.5t9.5 -99.5t21 -80t37 -54.5 t57.5 -35t81.5 -10.5q58 0 97 15t63.5 42.5t37 81.5t17 116.5t4.5 162.5q0 88 -2.5 144.5t-11.5 107t-23.5 78.5t-39.5 49t-59.5 28.5t-84.5 7.5q-54 0 -89.5 -14t-59.5 -42.5t-36 -82t-17 -120.5t-5 -171z" />
<glyph unicode="P" d="M131 0v1331h531q134 0 234 -35t158.5 -98t86.5 -144t28 -180q0 -219 -137 -350t-397 -131h-174v-393h-330zM461 664h168q99 0 144.5 46t45.5 154q0 34 -4 61t-16.5 54t-33.5 44.5t-57 28.5t-85 11h-162v-399z" />
<glyph unicode="Q" d="M49 651q0 123 19 227t61.5 192t106.5 149.5t158 96t212 34.5q146 0 250 -35.5t177.5 -115.5t109 -212t35.5 -321q0 -433 -234 -594l338 -348l-264 -168l-311 430q-47 -6 -99 -6q-284 0 -421.5 168.5t-137.5 502.5zM399 651q0 -74 2.5 -123.5t9.5 -99.5t21 -80t37 -54.5 t57.5 -35t81.5 -10.5q58 0 97 15t63.5 42.5t37 81.5t17 116.5t4.5 162.5q0 88 -2.5 144.5t-11.5 107t-23.5 78.5t-39.5 49t-59.5 28.5t-84.5 7.5q-54 0 -89.5 -14t-59.5 -42.5t-36 -82t-17 -120.5t-5 -171z" />
<glyph unicode="R" d="M100 0v1331h537q135 0 234.5 -33t158.5 -93.5t87 -139.5t28 -178q0 -282 -219 -400l260 -487h-389l-201 422h-166v-422h-330zM430 686h174q191 0 191 199q0 93 -43 135.5t-154 42.5h-168v-377z" />
<glyph unicode="S" d="M100 102l109 299q166 -153 377 -153q86 0 138 26.5t52 81.5q0 45 -36 80t-93 59.5t-126 49.5t-138.5 59t-126.5 78.5t-93 117t-36 165.5q0 110 70 199t187 137.5t257 48.5q119 0 218.5 -23.5t209.5 -83.5l-90 -301q-149 139 -338 139q-73 0 -118.5 -23t-45.5 -73 q0 -38 36 -68.5t93 -54t126 -48.5t138.5 -61t126.5 -81.5t93 -118.5t36 -166q0 -107 -47 -187.5t-128.5 -127t-182 -69.5t-217.5 -23q-263 0 -451 122z" />
<glyph unicode="T" d="M55 1063v268h1116v-268h-393v-1063h-329v1063h-394z" />
<glyph unicode="U" d="M86 459v872h330v-811q0 -81 13.5 -135.5t41 -84t62.5 -41t85 -11.5q113 0 159 59.5t46 210.5v813h318v-874q0 -113 -34 -200t-86.5 -138t-126 -83.5t-143.5 -44t-147 -11.5q-75 0 -141.5 10.5t-138 42.5t-122 83t-83.5 139t-33 204z" />
<glyph unicode="V" d="M18 1331h347l264 -1022l243 1022h340l-393 -1331h-397z" />
<glyph unicode="W" d="M20 1331h338l17 -966l131 679h237l154 -688l-4 975h317l-127 -1331h-329l-131 596l-111 -596h-334z" />
<glyph unicode="X" d="M27 0l401 688l-371 643h379l189 -393l190 393h332l-361 -629l416 -702h-379l-227 446l-231 -446h-338z" />
<glyph unicode="Y" d="M27 1331h356l254 -545l235 545h330l-416 -805v-526h-329v516z" />
<glyph unicode="Z" d="M100 0v217l629 846h-588v268h971v-235l-618 -828h632v-268h-1026z" />
<glyph unicode="[" d="M358 -342v1878h512v-205h-241v-1474h241v-199h-512z" />
<glyph unicode="\" d="M166 1405h242l655 -1444h-250z" />
<glyph unicode="]" d="M358 -143h242v1474h-242v205h512v-1878h-512v199z" />
<glyph unicode="^" d="M115 682l405 649h185l407 -649h-235l-269 416l-248 -416h-245z" />
<glyph unicode="_" d="M164 -88h901v-178h-901v178z" />
<glyph unicode="`" d="M391 1321l156 197l291 -291l-107 -125z" />
<glyph unicode="a" d="M121 279q0 76 31.5 134t81 92.5t120.5 56t139.5 29t147.5 7.5q11 0 35 -1t35 -1l2 39q0 77 -29 108t-100 31q-54 0 -92.5 -21t-38.5 -61q0 -8 4 -24l-275 -41q-16 41 -16 90q0 129 125 214t321 85q205 0 315 -86.5t109 -284.5l-2 -332q0 -86 68 -86q20 0 41 6l14 -225 q-98 -28 -182 -28q-200 0 -246 170q-106 -170 -287 -170q-146 0 -233.5 76t-87.5 223zM453 297q0 -39 27.5 -58.5t62.5 -19.5q44 0 79.5 17.5t52.5 36t36 46.5v93q-27 2 -72 2q-92 0 -139 -27t-47 -90z" />
<glyph unicode="b" d="M123 88v1315h326v-526q56 61 134.5 100t159.5 39q194 0 299 -131.5t105 -366.5q0 -251 -151 -394.5t-398 -143.5q-130 0 -256.5 30.5t-218.5 77.5zM449 274q53 -36 141 -36q98 0 156.5 62.5t58.5 182.5q0 132 -42.5 189t-127.5 57q-52 0 -101 -29.5t-85 -76.5v-349z" />
<glyph unicode="c" d="M150 500q0 244 152.5 380t404.5 136q104 0 211.5 -27.5t185.5 -73.5l-107 -276q-54 54 -130.5 84.5t-139.5 30.5q-235 0 -235 -254q0 -65 14.5 -113.5t37 -75.5t56.5 -43t64.5 -21t68.5 -5q65 0 143.5 26.5t135.5 73.5l82 -250q-89 -58 -207 -85t-213 -27 q-84 0 -157 14.5t-142 52t-117.5 95t-78 149t-29.5 209.5z" />
<glyph unicode="d" d="M102 477q0 250 149.5 394.5t387.5 144.5q51 0 162 -15v402h325v-1403h-292l-11 145q-54 -70 -140.5 -117.5t-176.5 -47.5q-194 0 -299 131t-105 366zM444 512q0 -132 42.5 -189t127.5 -57q52 0 101.5 30t85.5 77v348q-55 37 -142 37q-98 0 -156.5 -63t-58.5 -183z" />
<glyph unicode="e" d="M111 504q0 115 40.5 213t109.5 162.5t158 100.5t187 36q109 0 195 -28.5t153 -89.5t103.5 -166.5t36.5 -250.5q0 -44 -2 -69h-646q42 -181 273 -181q66 0 146 31t143 82l82 -250q-107 -59 -207.5 -86.5t-241.5 -27.5q-82 0 -156.5 17.5t-143.5 57t-119.5 99t-80.5 149.5 t-30 201zM440 610h326q1 11 1 22q-1 77 -39 115q-44 44 -112 44q-84 0 -125 -41t-51 -140z" />
<glyph unicode="f" d="M145 0v254h244v479h-207v225l207 19v49q0 188 115 292.5t346 104.5q72 0 152 -16.5t137 -46.5l-47 -258q-41 30 -106 48.5t-120 18.5q-67 0 -109 -36t-42 -113v-43h325v-244h-325v-479h348v-254h-918z" />
<glyph unicode="g" d="M90 477q0 169 76.5 293t203.5 185t289 61q240 0 455 -101v-841q0 -117 -29 -209.5t-79 -153t-122 -100.5t-153 -57t-176 -17q-224 0 -414 94l95 293q65 -56 148.5 -91.5t164.5 -35.5q48 0 81 5.5t65 23t51 48t30.5 82t11.5 124.5v80q-57 -62 -135.5 -101t-158.5 -39 q-194 0 -299 119t-105 338zM432 512q0 -115 41.5 -160t128.5 -45q52 0 101 30t85 77v307q-55 37 -141 37q-98 0 -156.5 -63t-58.5 -183z" />
<glyph unicode="h" d="M119 0v1403h325v-541q136 154 334 154q68 0 126 -20t104.5 -60t73 -109.5t26.5 -160.5v-666h-326v561q0 93 -35 126.5t-98 33.5q-53 0 -109.5 -29.5t-95.5 -75.5v-616h-325z" />
<glyph unicode="i" d="M145 0v254h301v477h-301v254h627v-731h311v-254h-938zM432 1305q0 75 52.5 128.5t127.5 53.5t129 -53.5t54 -128.5t-54 -128t-129 -53t-127.5 53t-52.5 128z" />
<glyph unicode="j" d="M164 -180q52 0 94 2t98 10t98.5 21.5t87.5 38.5t74 59t47.5 85.5t18.5 115.5v579h-485v254h811v-866q0 -82 -19 -152.5t-51 -124t-78.5 -97.5t-98 -74.5t-113.5 -54t-121 -37.5t-123.5 -23t-117.5 -12t-108 -3zM668 1305q0 75 52.5 128.5t127.5 53.5t128.5 -53.5 t53.5 -128.5t-53.5 -128t-128.5 -53t-127.5 53t-52.5 128z" />
<glyph unicode="k" d="M106 0v1403h326v-803l82 29l213 356h354l-293 -463l355 -522h-395l-230 375l-86 -23v-352h-326z" />
<glyph unicode="l" d="M145 0v254h306v895h-285v254h610v-1149h307v-254h-938z" />
<glyph unicode="m" d="M53 0v985h242l6 -184q56 114 111 164.5t131 50.5q88 0 135 -50t65 -145q52 103 105.5 149t126.5 46q64 0 107 -26.5t65.5 -79t31.5 -114t9 -147.5v-649h-270v631q0 80 -12.5 106.5t-45.5 26.5q-32 0 -60.5 -31.5t-43.5 -79.5v-653h-271v631q0 80 -12 106.5t-45 26.5 q-32 0 -60.5 -32t-43.5 -83v-649h-271z" />
<glyph unicode="n" d="M119 0v985h297l6 -145q136 176 356 176q68 0 126 -20t104.5 -60t73 -109.5t26.5 -160.5v-666h-326v561q0 93 -35 126.5t-98 33.5q-53 0 -109.5 -29.5t-95.5 -75.5v-616h-325z" />
<glyph unicode="o" d="M78 500q0 221 149 368.5t389 147.5q254 0 394.5 -141.5t140.5 -374.5q0 -109 -36.5 -203.5t-103.5 -165t-168.5 -111t-224.5 -40.5q-251 0 -395.5 138.5t-144.5 381.5zM420 502q0 -271 188 -271q118 0 159.5 62t41.5 209q0 58 -8.5 102t-30 82t-62.5 58t-100 20 q-102 0 -145 -66t-43 -196z" />
<glyph unicode="p" d="M123 -451v1436h293l10 -135q54 70 140.5 118t176.5 48q194 0 299 -131.5t105 -366.5q0 -250 -149.5 -394t-387.5 -144q-61 0 -161 14v-445h-326zM449 274q53 -36 141 -36q98 0 156.5 62.5t58.5 182.5q0 132 -42.5 189t-127.5 57q-52 0 -101 -29.5t-85 -76.5v-349z" />
<glyph unicode="q" d="M102 477q0 127 44 230.5t121.5 170t181 102.5t223.5 36q239 0 454 -101v-1366h-325v570q-57 -61 -136 -100t-159 -39q-194 0 -299 131t-105 366zM444 512q0 -132 42.5 -189t127.5 -57q52 0 101.5 30t85.5 77v348q-55 37 -142 37q-98 0 -156.5 -63t-58.5 -183z" />
<glyph unicode="r" d="M94 0v254h291v477h-289v254h578l14 -199q39 77 102.5 127.5t121 69t112.5 18.5q45 0 86 -8l-25 -331q-56 22 -135 22q-56 0 -128.5 -33t-110.5 -96v-301h403v-254h-1020z" />
<glyph unicode="s" d="M172 59l76 273q54 -47 139 -78t168 -31q35 0 61 2t55.5 9t45.5 23t16 40q0 25 -30.5 44t-79 33t-107 29.5t-117.5 39.5t-107.5 56t-79 86t-30.5 124q0 137 125.5 222t325.5 85q128 0 243.5 -23t190.5 -67l-94 -264q-128 112 -303 112q-54 0 -102 -12t-48 -41 q0 -18 24 -32.5t63 -25t88.5 -25t102 -30t102 -42.5t88.5 -60.5t63 -85.5t24 -115q0 -66 -22.5 -119t-63 -87.5t-89.5 -58.5t-109.5 -36.5t-114.5 -18t-113 -5.5q-252 0 -391 79z" />
<glyph unicode="t" d="M100 733v223l232 21l39 254h282v-254h400v-244h-400v-330q0 -93 44 -130t120 -37q60 0 127.5 23t116.5 56l47 -256q-169 -79 -367 -79q-86 0 -157.5 18.5t-130.5 58t-92 110.5t-33 169v397h-228z" />
<glyph unicode="u" d="M123 330v655h326v-571q0 -96 30.5 -130t83.5 -34q52 0 112 37.5t105 91.5v606h326v-985h-287l-16 156q-136 -176 -350 -176q-330 0 -330 350z" />
<glyph unicode="v" d="M84 985h350l187 -731l180 731h344l-332 -985h-407z" />
<glyph unicode="w" d="M18 985h310l51 -709l125 543h235l123 -543l45 709h303l-196 -985h-309l-97 477l-94 -477h-309z" />
<glyph unicode="x" d="M106 0l324 512l-287 473h353l131 -242l127 242h336l-287 -455l319 -530h-350l-166 307l-178 -307h-322z" />
<glyph unicode="y" d="M86 985h354l187 -668l186 668h328l-494 -1436h-325l122 371z" />
<glyph unicode="z" d="M139 0v203l486 528h-453v254h897v-203l-512 -528h549v-254h-967z" />
<glyph unicode="{" d="M289 489v199h55q109 0 109 60v436q0 73 16.5 130t56 106.5t114.5 76.5t181 27h119v-193h-98q-79 0 -113.5 -35.5t-34.5 -107.5v-334q0 -52 -6 -88.5t-23.5 -74t-55 -63.5t-95.5 -40q180 -20 180 -252v-346q0 -73 27 -105t104 -32h115v-197h-131q-73 0 -128.5 9t-95 29 t-65 46.5t-40.5 66t-21 84t-6 103.5v436q0 33 -24 46t-85 13h-55z" />
<glyph unicode="|" d="M494 -39v1444h241v-1444h-241z" />
<glyph unicode="}" d="M289 -147h114q78 0 105 32.5t27 104.5v346q0 232 180 252q-58 14 -95.5 40t-55 63.5t-23.5 74t-6 88.5v334q0 72 -34.5 107.5t-113.5 35.5h-98v193h119q106 0 181 -27t114.5 -76.5t56 -106.5t16.5 -130v-436q0 -60 109 -60h55v-199h-55q-61 0 -85 -13t-24 -46v-436 q0 -59 -6 -103.5t-21 -84t-40.5 -66t-65 -46.5t-95 -29t-128.5 -9h-131v197z" />
<glyph unicode="~" d="M57 526q61 100 124 155t113.5 70t117.5 15q63 0 134 -23t121 -51t100 -51t77 -23q49 0 82 31.5t100 132.5l145 -104q-47 -81 -94.5 -136.5t-92 -82t-81 -37t-76.5 -10.5q-65 0 -129.5 23.5t-107 51t-94 51t-93.5 23.5q-49 0 -97 -32t-107 -107z" />
<glyph unicode="&#xa0;" />
<glyph unicode="&#xa1;" d="M424 840q0 85 48.5 130.5t141.5 45.5q94 0 141.5 -45t47.5 -131q0 -82 -50.5 -129t-138.5 -47q-85 0 -137.5 45t-52.5 131zM465 106l29 375h239l29 -377v-442h-297v444z" />
<glyph unicode="&#xa2;" d="M170 500q0 202 120 345.5t328 166.5v155h170v-157q146 -17 271 -88l-107 -283q-77 77 -164 102v-493q93 22 183 94l82 -250q-114 -75 -265 -100v-150h-170v140q-96 5 -176 39.5t-141.5 96.5t-96 160t-34.5 222zM512 500q0 -182 106 -238v471q-106 -56 -106 -233z" />
<glyph unicode="&#xa3;" d="M66 0v182q81 6 128.5 73t47.5 140v162h-162v217h162v111q0 136 66.5 244t173.5 164.5t233 56.5q224 0 366 -109l-120 -229q-65 47 -110.5 66.5t-98.5 19.5q-35 0 -66.5 -10t-61 -32t-46.5 -65.5t-17 -103.5v-113h404v-217h-404v-90q0 -139 -102 -221h272q75 0 132.5 22.5 t89 52.5t63.5 76l145 -194q-15 -35 -41.5 -66.5t-71.5 -64.5t-118 -52.5t-164 -19.5h-700z" />
<glyph unicode="&#xa4;" d="M174 242l176 166q-37 70 -37 137q0 69 37 127q-27 27 -90 86t-86 82l113 114l182 -168q61 31 139 31q73 0 146 -31l182 166l119 -108l-181 -170q39 -56 39 -129t-39 -137l181 -166l-119 -109l-180 166q-54 -33 -142 -33q-65 0 -143 35l-186 -172zM539 543q0 -76 75 -76 q74 0 74 76q0 69 -74 69q-75 0 -75 -69z" />
<glyph unicode="&#xa5;" d="M27 1331h356l254 -545l235 545h330l-360 -696h217v-217h-273v-70h273v-217h-273v-131h-329v131h-283v217h283v70h-283v217h219z" />
<glyph unicode="&#xa6;" d="M494 -39v621h241v-621h-241zM494 784v621h241v-621h-241z" />
<glyph unicode="&#xa7;" d="M137 -158q77 -47 146 -66.5t114 -19.5q72 0 118.5 26.5t49.5 82.5q0 59 -36 166.5t-87.5 226l-103 237t-87.5 225t-36 165.5q1 104 58 193.5t148.5 147t204 90t226.5 32.5q105 0 238 -19v-233q-66 40 -148.5 57.5t-148.5 17.5q-97 0 -97 -120q0 -69 54 -214.5t118 -286 t118 -286t54 -213.5q0 -97 -47 -179.5t-120 -136.5t-163.5 -92t-175.5 -54.5t-159 -16.5q-125 0 -238 31v239zM416 911q0 -56 35 -154.5t85 -208.5t100 -223.5t85 -227t35 -191.5q0 -25 -2 -37q30 26 45 42.5t29.5 50t15.5 75.5q-1 79 -55 221.5t-117.5 275t-116.5 278 t-53 230.5q0 45 12 62q-46 -32 -72 -91.5t-26 -101.5z" />
<glyph unicode="&#xa8;" d="M262 1268q0 64 45.5 109.5t110.5 45.5q64 0 109.5 -45.5t45.5 -109.5q0 -65 -45.5 -110.5t-109.5 -45.5t-110 46t-46 110zM655 1268q0 64 45.5 109.5t110.5 45.5t110.5 -45.5t45.5 -109.5t-45.5 -110t-110.5 -46t-110.5 46t-45.5 110z" />
<glyph unicode="&#xa9;" d="M12 641q0 181 75.5 331t213.5 238t309 88q176 0 316 -88t216.5 -237.5t76.5 -331.5q0 -181 -73 -329t-213.5 -237t-322.5 -89q-171 0 -309 88.5t-213.5 238t-75.5 328.5zM115 641q0 -251 141 -408t354 -157q233 0 369.5 155.5t136.5 409.5q0 157 -60 284.5t-176.5 204 t-269.5 76.5q-150 0 -263 -73t-172.5 -200.5t-59.5 -291.5zM207 637q0 195 123 308.5t315 113.5q159 0 279 -72l-74 -190q-117 88 -217 88q-82 0 -134.5 -62.5t-52.5 -181.5q0 -122 50 -185t143 -63q104 0 233 84l56 -182q-146 -76 -312 -76q-200 0 -304.5 108t-104.5 310z " />
<glyph unicode="&#xaa;" d="M221 811q0 62 35.5 107t96.5 68t127.5 33.5t142.5 10.5h41v39q0 53 -17 72.5t-63 19.5q-34 0 -58 -12.5t-24 -38.5q0 -5 4 -25l-227 -32q-17 41 -17 75q0 96 96 159t248 63q323 0 326 -275l-2 -239q0 -56 31 -56q8 0 34 11l11 -179q-89 -24 -148 -24q-141 0 -174 102 q-72 -102 -211 -102q-114 0 -183 56.5t-69 166.5zM494 840q0 -32 16 -48t39 -16q69 0 115 66v82h-43q-59 0 -93 -22.5t-34 -61.5z" />
<glyph unicode="&#xab;" d="M123 479l285 473h254l-203 -467l203 -479h-254zM567 479l285 473h252l-201 -467l201 -479h-252z" />
<glyph unicode="&#xac;" d="M63 504v182h1100v-577h-225v395h-875z" />
<glyph unicode="&#xad;" d="M322 383v264h585v-264h-585z" />
<glyph unicode="&#xae;" d="M121 846q0 137 66 253t178.5 183.5t244.5 67.5q135 0 249 -67.5t180.5 -183.5t66.5 -253q0 -217 -144 -359.5t-352 -142.5q-132 0 -244.5 67.5t-178.5 183t-66 251.5zM213 846q0 -95 33 -175t88.5 -133t127 -82.5t148.5 -29.5q181 0 292.5 114.5t111.5 305.5 q0 110 -50 205.5t-144 155t-210 59.5q-175 0 -286 -117t-111 -303zM358 541v612h267q270 0 270 -207q0 -123 -107 -178l105 -227h-207l-65 192h-74v-192h-189zM547 862h61q90 0 90 84q0 40 -19.5 58t-72.5 18h-59v-160z" />
<glyph unicode="&#xaf;" d="M330 1192v192h567v-192h-567z" />
<glyph unicode="&#xb0;" d="M322 1079q0 120 81 195.5t213 75.5t211.5 -71.5t79.5 -199.5q0 -124 -80.5 -199t-210.5 -75q-132 0 -213 75t-81 199zM492 1079q0 -66 31.5 -102.5t92.5 -36.5q56 0 86.5 38t30.5 101q0 66 -28 99.5t-89 33.5q-124 0 -124 -133z" />
<glyph unicode="&#xb1;" d="M178 -27v201h871v-201h-871zM178 520v207h316v254h239v-254h316v-207h-316v-244h-239v244h-316z" />
<glyph unicode="&#xb4;" d="M391 1227l291 291l156 -197l-340 -219z" />
<glyph unicode="&#xb5;" d="M123 -451v1438h326v-573q0 -96 30.5 -130t83.5 -34q52 0 112 37.5t105 91.5v608h326v-987h-287l-16 156q-136 -176 -350 -176h-80q76 -82 76 -189v-242h-326z" />
<glyph unicode="&#xb6;" d="M70 750q0 111 45 214t127.5 185.5t213 132t289.5 49.5v-1782h-245v660q-210 69 -320 217t-110 324zM911 -451v1782h246v-1782h-246z" />
<glyph unicode="&#xb7;" d="M432 606q0 75 52.5 128.5t127.5 53.5t129 -53.5t54 -128.5t-54 -127.5t-129 -52.5t-127.5 52.5t-52.5 127.5z" />
<glyph unicode="&#xb8;" d="M391 -436l49 149q50 -47 111 -47q72 0 72 55q0 69 -138 72l52 221h137l-27 -120q93 -17 142 -66.5t49 -122.5q0 -49 -23 -86t-61.5 -57t-81 -29.5t-88.5 -9.5q-49 0 -105 12t-88 29z" />
<glyph unicode="&#xba;" d="M201 971q0 163 114.5 271t300.5 108q195 0 303.5 -104t108.5 -275q0 -165 -111 -274t-301 -109q-192 0 -303.5 102.5t-111.5 280.5zM481 973q0 -189 129 -189q81 0 109.5 43.5t28.5 145.5q0 84 -30 132t-108 48q-70 0 -99.5 -45t-29.5 -135z" />
<glyph unicode="&#xbb;" d="M123 6l203 479l-203 467h252l287 -473l-287 -473h-252zM567 6l201 479l-201 467h252l285 -473l-285 -473h-252z" />
<glyph unicode="&#xbf;" d="M190 -49q0 56 26 104.5t65 81t84.5 65t84.5 58.5t65 59.5t26 69.5q0 47 -47 100l309 76q41 -97 41 -178q0 -54 -31 -106t-76 -92.5t-89.5 -77.5t-75.5 -74.5t-31 -69.5q0 -40 31 -62t85 -22q144 0 258 105l123 -205q-177 -139 -430 -139q-84 0 -157 18.5t-132 54.5 t-93.5 96.5t-35.5 137.5zM438 840q0 85 49 130.5t142 45.5q188 0 188 -176q0 -82 -50 -129t-138 -47q-86 0 -138.5 45t-52.5 131z" />
<glyph unicode="&#xc0;" d="M8 0l418 1331h371l424 -1331h-351l-73 272h-383l-68 -272h-338zM285 1516l92 239l407 -223l-63 -150zM477 528h252l-131 488z" />
<glyph unicode="&#xc1;" d="M8 0l418 1331h371l424 -1331h-351l-73 272h-383l-68 -272h-338zM408 1532l407 223l92 -239l-436 -134zM477 528h252l-131 488z" />
<glyph unicode="&#xc2;" d="M8 0l418 1331h371l424 -1331h-351l-73 272h-383l-68 -272h-338zM274 1550l263 211h137l260 -202l-105 -152l-231 139l-227 -139zM477 528h252l-131 488z" />
<glyph unicode="&#xc3;" d="M8 0l418 1331h371l424 -1331h-351l-73 272h-383l-68 -272h-338zM236 1536q46 85 107 128.5t128 43.5q44 0 133.5 -27.5t132.5 -27.5q74 0 125 61l99 -108q-40 -75 -109 -123.5t-137 -48.5q-39 0 -125.5 31.5t-132.5 31.5q-70 0 -125 -55zM477 528h252l-131 488z" />
<glyph unicode="&#xc4;" d="M8 0l418 1331h371l424 -1331h-351l-73 272h-383l-68 -272h-338zM225 1593q0 65 45.5 110.5t110.5 45.5t110.5 -45.5t45.5 -110.5q0 -64 -45.5 -109.5t-110.5 -45.5t-110.5 45.5t-45.5 109.5zM477 528h252l-131 488zM659 1593q0 65 45.5 110.5t110.5 45.5t110.5 -45.5 t45.5 -110.5q0 -64 -45.5 -109.5t-110.5 -45.5t-110.5 45.5t-45.5 109.5z" />
<glyph unicode="&#xc5;" d="M8 0l418 1331h371l424 -1331h-351l-73 272h-383l-68 -272h-338zM383 1618q0 102 69.5 157.5t165.5 55.5q98 0 163 -53t65 -160q0 -91 -62 -153t-170 -62t-169.5 59t-61.5 156zM477 528h252l-131 488zM545 1618q0 -41 16.5 -58.5t52.5 -17.5q39 0 54.5 18t15.5 58t-17 57 t-53 17q-39 0 -54 -16.5t-15 -57.5z" />
<glyph unicode="&#xc6;" d="M10 0l414 1331h795v-268h-340v-252h282v-266h-282v-273h338v-272h-627v209h-191l-51 -209h-338zM459 455h131v532z" />
<glyph unicode="&#xc7;" d="M102 668q0 322 171.5 502t467.5 180q205 0 385 -111l-108 -272q-82 64 -148 89t-147 25q-270 0 -270 -407q0 -213 66 -320.5t212 -107.5q169 0 328 110l76 -258q-188 -102 -371 -116l-19 -88q93 -17 142 -66.5t49 -122.5q0 -49 -23 -86t-61.5 -57t-81 -29.5t-88.5 -9.5 q-49 0 -105 12t-88 29l50 149q50 -47 110 -47q72 0 72 55q0 69 -137 72l43 191q-259 20 -392 195.5t-133 488.5z" />
<glyph unicode="&#xc8;" d="M133 0v1331h967v-268h-637v-252h579v-266h-579v-273h635v-272h-965zM287 1516l92 239l407 -223l-63 -150z" />
<glyph unicode="&#xc9;" d="M133 0v1331h967v-268h-637v-252h579v-266h-579v-273h635v-272h-965zM416 1532l407 223l92 -239l-436 -134z" />
<glyph unicode="&#xca;" d="M133 0v1331h967v-268h-637v-252h579v-266h-579v-273h635v-272h-965zM301 1550l262 211h137l261 -202l-105 -152l-231 139l-228 -139z" />
<glyph unicode="&#xcb;" d="M133 0v1331h967v-268h-637v-252h579v-266h-579v-273h635v-272h-965zM252 1593q0 65 46 110.5t110 45.5t109.5 -45.5t45.5 -110.5t-45.5 -110t-109.5 -45q-65 0 -110.5 45.5t-45.5 109.5zM686 1593q0 65 46 110.5t110 45.5t109.5 -45.5t45.5 -110.5t-45.5 -110t-109.5 -45 q-65 0 -110.5 45.5t-45.5 109.5z" />
<glyph unicode="&#xcc;" d="M104 0v272h345v787h-345v272h1020v-272h-346v-787h346v-272h-1020zM281 1516l92 239l407 -223l-63 -150z" />
<glyph unicode="&#xcd;" d="M104 0v272h345v787h-345v272h1020v-272h-346v-787h346v-272h-1020zM418 1532l407 223l93 -239l-437 -134z" />
<glyph unicode="&#xce;" d="M104 0v272h345v787h-345v272h1020v-272h-346v-787h346v-272h-1020zM268 1550l262 211h138l260 -202l-105 -152l-231 139l-227 -139z" />
<glyph unicode="&#xcf;" d="M104 0v272h345v787h-345v272h1020v-272h-346v-787h346v-272h-1020zM233 1593q0 65 45.5 110.5t110.5 45.5t110.5 -45.5t45.5 -110.5q0 -64 -45.5 -109.5t-110.5 -45.5t-110.5 45.5t-45.5 109.5zM668 1593q0 65 45.5 110.5t109.5 45.5q65 0 110.5 -45.5t45.5 -110.5 q0 -64 -45.5 -109.5t-110.5 -45.5t-110 45t-45 110z" />
<glyph unicode="&#xd0;" d="M6 547v250h74v534h436q184 0 313.5 -42.5t206 -128t110.5 -203t34 -279.5q0 -73 -7 -137t-26 -134.5t-49.5 -128t-82 -110.5t-119 -89t-164 -57.5t-214.5 -21.5h-438v547h-74zM410 272h125q57 0 101.5 10.5t75.5 27.5t52.5 46t33.5 58.5t18.5 74t8.5 82.5t2 93 q0 62 -2.5 104.5t-10 88t-21 74.5t-37 56.5t-57.5 42.5t-82 24t-111 9h-96v-266h157v-250h-157v-275z" />
<glyph unicode="&#xd1;" d="M66 0v1331h358l432 -799v799h307v-1331h-334l-454 852l2 -852h-311zM268 1536q46 85 107.5 128.5t128.5 43.5q44 0 133.5 -27.5t132.5 -27.5q74 0 125 61l98 -108q-40 -75 -109 -123.5t-136 -48.5q-39 0 -126 31.5t-133 31.5q-69 0 -124 -55z" />
<glyph unicode="&#xd2;" d="M51 651q0 123 19 227t61.5 192t106.5 149.5t158 96t212 34.5q146 0 250 -35.5t177.5 -115.5t109 -212t35.5 -321q0 -120 -18 -220t-60 -187.5t-106.5 -148t-162.5 -95.5t-223 -35q-284 0 -421.5 168.5t-137.5 502.5zM297 1516l92 239l408 -223l-64 -150zM401 651 q0 -74 2.5 -123.5t9.5 -99.5t21 -80t37 -54.5t57.5 -35t81.5 -10.5q58 0 97 15t63.5 42.5t37 81.5t17 116.5t4.5 162.5q0 88 -2.5 144.5t-11.5 107t-23.5 78.5t-39.5 49t-59.5 28.5t-84.5 7.5q-54 0 -89.5 -14t-59.5 -42.5t-36 -82t-17 -120.5t-5 -171z" />
<glyph unicode="&#xd3;" d="M51 651q0 123 19 227t61.5 192t106.5 149.5t158 96t212 34.5q146 0 250 -35.5t177.5 -115.5t109 -212t35.5 -321q0 -120 -18 -220t-60 -187.5t-106.5 -148t-162.5 -95.5t-223 -35q-284 0 -421.5 168.5t-137.5 502.5zM401 651q0 -74 2.5 -123.5t9.5 -99.5t21 -80t37 -54.5 t57.5 -35t81.5 -10.5q58 0 97 15t63.5 42.5t37 81.5t17 116.5t4.5 162.5q0 88 -2.5 144.5t-11.5 107t-23.5 78.5t-39.5 49t-59.5 28.5t-84.5 7.5q-54 0 -89.5 -14t-59.5 -42.5t-36 -82t-17 -120.5t-5 -171zM438 1532l408 223l92 -239l-436 -134z" />
<glyph unicode="&#xd4;" d="M51 651q0 123 19 227t61.5 192t106.5 149.5t158 96t212 34.5q146 0 250 -35.5t177.5 -115.5t109 -212t35.5 -321q0 -120 -18 -220t-60 -187.5t-106.5 -148t-162.5 -95.5t-223 -35q-284 0 -421.5 168.5t-137.5 502.5zM305 1550l262 211h138l260 -202l-105 -152l-231 139 l-228 -139zM401 651q0 -74 2.5 -123.5t9.5 -99.5t21 -80t37 -54.5t57.5 -35t81.5 -10.5q58 0 97 15t63.5 42.5t37 81.5t17 116.5t4.5 162.5q0 88 -2.5 144.5t-11.5 107t-23.5 78.5t-39.5 49t-59.5 28.5t-84.5 7.5q-54 0 -89.5 -14t-59.5 -42.5t-36 -82t-17 -120.5t-5 -171z " />
<glyph unicode="&#xd5;" d="M51 651q0 123 19 227t61.5 192t106.5 149.5t158 96t212 34.5q146 0 250 -35.5t177.5 -115.5t109 -212t35.5 -321q0 -120 -18 -220t-60 -187.5t-106.5 -148t-162.5 -95.5t-223 -35q-284 0 -421.5 168.5t-137.5 502.5zM254 1536q46 85 107 128.5t128 43.5q44 0 134 -27.5 t133 -27.5q74 0 125 61l98 -108q-40 -75 -109 -123.5t-137 -48.5q-39 0 -125.5 31.5t-132.5 31.5q-70 0 -125 -55zM401 651q0 -74 2.5 -123.5t9.5 -99.5t21 -80t37 -54.5t57.5 -35t81.5 -10.5q58 0 97 15t63.5 42.5t37 81.5t17 116.5t4.5 162.5q0 88 -2.5 144.5t-11.5 107 t-23.5 78.5t-39.5 49t-59.5 28.5t-84.5 7.5q-54 0 -89.5 -14t-59.5 -42.5t-36 -82t-17 -120.5t-5 -171z" />
<glyph unicode="&#xd6;" d="M51 651q0 123 19 227t61.5 192t106.5 149.5t158 96t212 34.5q146 0 250 -35.5t177.5 -115.5t109 -212t35.5 -321q0 -120 -18 -220t-60 -187.5t-106.5 -148t-162.5 -95.5t-223 -35q-284 0 -421.5 168.5t-137.5 502.5zM227 1593q0 65 45.5 110.5t110.5 45.5t110.5 -45.5 t45.5 -110.5q0 -64 -45.5 -109.5t-110.5 -45.5t-110.5 45.5t-45.5 109.5zM401 651q0 -74 2.5 -123.5t9.5 -99.5t21 -80t37 -54.5t57.5 -35t81.5 -10.5q58 0 97 15t63.5 42.5t37 81.5t17 116.5t4.5 162.5q0 88 -2.5 144.5t-11.5 107t-23.5 78.5t-39.5 49t-59.5 28.5 t-84.5 7.5q-54 0 -89.5 -14t-59.5 -42.5t-36 -82t-17 -120.5t-5 -171zM662 1593q0 65 45.5 110.5t109.5 45.5q65 0 110.5 -45.5t45.5 -110.5q0 -64 -45.5 -109.5t-110.5 -45.5t-110 45t-45 110z" />
<glyph unicode="&#xd7;" d="M242 354l213 207l-211 203l166 160l208 -205l213 207l154 -146l-217 -207l219 -211l-166 -157l-215 211l-213 -209z" />
<glyph unicode="&#xd8;" d="M51 651q0 123 19 227t61.5 192t106.5 149.5t158 96t212 34.5q206 0 336 -78l53 78h187l-123 -183q119 -166 119 -501q0 -120 -18 -220t-60 -187.5t-106.5 -148t-162.5 -95.5t-223 -35q-186 0 -303 69l-47 -69h-207l125 182q-127 167 -127 489zM401 651q0 -103 5 -162 l366 535q-46 57 -164 57q-54 0 -89.5 -14t-59.5 -42.5t-36 -82t-17 -120.5t-5 -171zM471 293q45 -45 139 -45q58 0 97 15t63.5 42.5t37 81.5t17 116.5t4.5 162.5q0 63 -4 153z" />
<glyph unicode="&#xd9;" d="M86 459v872h330v-811q0 -81 13.5 -135.5t41 -84t62.5 -41t85 -11.5q113 0 159 59.5t46 210.5v813h318v-874q0 -113 -34 -200t-86.5 -138t-126 -83.5t-143.5 -44t-147 -11.5q-75 0 -141.5 10.5t-138 42.5t-122 83t-83.5 139t-33 204zM324 1516l92 239l407 -223l-63 -150z " />
<glyph unicode="&#xda;" d="M86 459v872h330v-811q0 -81 13.5 -135.5t41 -84t62.5 -41t85 -11.5q113 0 159 59.5t46 210.5v813h318v-874q0 -113 -34 -200t-86.5 -138t-126 -83.5t-143.5 -44t-147 -11.5q-75 0 -141.5 10.5t-138 42.5t-122 83t-83.5 139t-33 204zM434 1532l408 223l92 -239l-436 -134z " />
<glyph unicode="&#xdb;" d="M86 459v872h330v-811q0 -81 13.5 -135.5t41 -84t62.5 -41t85 -11.5q113 0 159 59.5t46 210.5v813h318v-874q0 -113 -34 -200t-86.5 -138t-126 -83.5t-143.5 -44t-147 -11.5q-75 0 -141.5 10.5t-138 42.5t-122 83t-83.5 139t-33 204zM285 1550l262 211h137l260 -202 l-104 -152l-232 139l-227 -139z" />
<glyph unicode="&#xdc;" d="M86 459v872h330v-811q0 -81 13.5 -135.5t41 -84t62.5 -41t85 -11.5q113 0 159 59.5t46 210.5v813h318v-874q0 -113 -34 -200t-86.5 -138t-126 -83.5t-143.5 -44t-147 -11.5q-75 0 -141.5 10.5t-138 42.5t-122 83t-83.5 139t-33 204zM225 1593q0 65 45.5 110.5t110.5 45.5 t110.5 -45.5t45.5 -110.5q0 -64 -45.5 -109.5t-110.5 -45.5t-110.5 45.5t-45.5 109.5zM659 1593q0 65 45.5 110.5t110.5 45.5t110.5 -45.5t45.5 -110.5q0 -64 -45.5 -109.5t-110.5 -45.5t-110.5 45.5t-45.5 109.5z" />
<glyph unicode="&#xdd;" d="M27 1331h356l254 -545l235 545h330l-416 -805v-526h-329v516zM414 1532l407 223l92 -239l-436 -134z" />
<glyph unicode="&#xde;" d="M104 0v1331h330v-143h180q134 0 234 -35t159 -98t87 -144t28 -180q0 -219 -137 -350t-397 -131h-154v-250h-330zM434 535h148q100 0 145 43.5t45 150.5q0 43 -7.5 74.5t-27.5 59.5t-60.5 42.5t-101.5 14.5h-141v-385z" />
<glyph unicode="&#xdf;" d="M12 733v225l97 19v59q0 103 40.5 180t110 121t152 65t176.5 21q98 0 175.5 -17.5t127 -47t82 -70t46 -84t13.5 -92.5q0 -50 -25 -94.5t-61 -76t-72 -59.5t-61 -58t-25 -60t23.5 -53.5t61.5 -41.5t83.5 -37t91.5 -45.5t84 -61.5t61.5 -91.5t23.5 -128.5 q0 -87 -33.5 -151.5t-92.5 -101.5t-132 -54.5t-160 -17.5q-207 0 -340 79l71 273q41 -48 109.5 -79.5t140.5 -31.5q50 0 81.5 19t31.5 57q0 25 -23.5 44t-61 33.5t-82.5 30.5t-90 40.5t-82.5 58t-61 90t-23.5 129.5q0 55 22.5 103t54.5 81.5t63.5 62t54 58.5t22.5 59 q0 37 -33 60.5t-84 23.5q-84 0 -117.5 -46.5t-33.5 -161.5v-963h-309v733h-97z" />
<glyph unicode="&#xe0;" d="M121 279q0 76 31.5 134t81 92.5t120.5 56t139.5 29t147.5 7.5q11 0 35 -1t35 -1l2 39q0 77 -29 108t-100 31q-54 0 -92.5 -21t-38.5 -61q0 -8 4 -24l-275 -41q-16 41 -16 90q0 129 125 214t321 85q205 0 315 -86.5t109 -284.5l-2 -332q0 -86 68 -86q20 0 41 6l14 -225 q-98 -28 -182 -28q-200 0 -246 170q-106 -170 -287 -170q-146 0 -233.5 76t-87.5 223zM293 1321l156 197l290 -291l-106 -125zM453 297q0 -39 27.5 -58.5t62.5 -19.5q44 0 79.5 17.5t52.5 36t36 46.5v93q-27 2 -72 2q-92 0 -139 -27t-47 -90z" />
<glyph unicode="&#xe1;" d="M121 279q0 76 31.5 134t81 92.5t120.5 56t139.5 29t147.5 7.5q11 0 35 -1t35 -1l2 39q0 77 -29 108t-100 31q-54 0 -92.5 -21t-38.5 -61q0 -8 4 -24l-275 -41q-16 41 -16 90q0 129 125 214t321 85q205 0 315 -86.5t109 -284.5l-2 -332q0 -86 68 -86q20 0 41 6l14 -225 q-98 -28 -182 -28q-200 0 -246 170q-106 -170 -287 -170q-146 0 -233.5 76t-87.5 223zM451 1227l290 291l156 -197l-340 -219zM453 297q0 -39 27.5 -58.5t62.5 -19.5q44 0 79.5 17.5t52.5 36t36 46.5v93q-27 2 -72 2q-92 0 -139 -27t-47 -90z" />
<glyph unicode="&#xe2;" d="M121 279q0 76 31.5 134t81 92.5t120.5 56t139.5 29t147.5 7.5q11 0 35 -1t35 -1l2 39q0 77 -29 108t-100 31q-54 0 -92.5 -21t-38.5 -61q0 -8 4 -24l-275 -41q-16 41 -16 90q0 129 125 214t321 85q205 0 315 -86.5t109 -284.5l-2 -332q0 -86 68 -86q20 0 41 6l14 -225 q-98 -28 -182 -28q-200 0 -246 170q-106 -170 -287 -170q-146 0 -233.5 76t-87.5 223zM256 1223l285 262h137l262 -260l-143 -131l-195 168l-213 -168zM453 297q0 -39 27.5 -58.5t62.5 -19.5q44 0 79.5 17.5t52.5 36t36 46.5v93q-27 2 -72 2q-92 0 -139 -27t-47 -90z" />
<glyph unicode="&#xe3;" d="M121 279q0 76 31.5 134t81 92.5t120.5 56t139.5 29t147.5 7.5q11 0 35 -1t35 -1l2 39q0 77 -29 108t-100 31q-54 0 -92.5 -21t-38.5 -61q0 -8 4 -24l-275 -41q-16 41 -16 90q0 129 125 214t321 85q205 0 315 -86.5t109 -284.5l-2 -332q0 -86 68 -86q20 0 41 6l14 -225 q-98 -28 -182 -28q-200 0 -246 170q-106 -170 -287 -170q-146 0 -233.5 76t-87.5 223zM242 1264q46 85 107 128.5t128 43.5q44 0 133.5 -28t132.5 -28q74 0 125 62l99 -109q-40 -75 -109 -123.5t-137 -48.5q-39 0 -125.5 32t-132.5 32q-69 0 -125 -56zM453 297 q0 -39 27.5 -58.5t62.5 -19.5q44 0 79.5 17.5t52.5 36t36 46.5v93q-27 2 -72 2q-92 0 -139 -27t-47 -90z" />
<glyph unicode="&#xe4;" d="M121 279q0 76 31.5 134t81 92.5t120.5 56t139.5 29t147.5 7.5q11 0 35 -1t35 -1l2 39q0 77 -29 108t-100 31q-54 0 -92.5 -21t-38.5 -61q0 -8 4 -24l-275 -41q-16 41 -16 90q0 129 125 214t321 85q205 0 315 -86.5t109 -284.5l-2 -332q0 -86 68 -86q20 0 41 6l14 -225 q-98 -28 -182 -28q-200 0 -246 170q-106 -170 -287 -170q-146 0 -233.5 76t-87.5 223zM248 1268q0 64 45 109.5t110 45.5t110.5 -45.5t45.5 -109.5t-45.5 -110t-110.5 -46q-64 0 -109.5 45.5t-45.5 110.5zM453 297q0 -39 27.5 -58.5t62.5 -19.5q44 0 79.5 17.5t52.5 36 t36 46.5v93q-27 2 -72 2q-92 0 -139 -27t-47 -90zM641 1268q0 64 45.5 109.5t110.5 45.5t110 -45.5t45 -109.5q0 -65 -45.5 -110.5t-109.5 -45.5q-65 0 -110.5 46t-45.5 110z" />
<glyph unicode="&#xe5;" d="M121 279q0 76 31.5 134t81 92.5t120.5 56t139.5 29t147.5 7.5q11 0 35 -1t35 -1l2 39q0 77 -29 108t-100 31q-54 0 -92.5 -21t-38.5 -61q0 -8 4 -24l-275 -41q-16 41 -16 90q0 129 125 214t321 85q205 0 315 -86.5t109 -284.5l-2 -332q0 -86 68 -86q20 0 41 6l14 -225 q-98 -28 -182 -28q-200 0 -246 170q-106 -170 -287 -170q-146 0 -233.5 76t-87.5 223zM375 1325q0 102 69.5 157.5t165.5 55.5q98 0 163 -53t65 -160q0 -91 -62 -153t-170 -62t-169.5 59t-61.5 156zM453 297q0 -39 27.5 -58.5t62.5 -19.5q44 0 79.5 17.5t52.5 36t36 46.5v93 q-27 2 -72 2q-92 0 -139 -27t-47 -90zM537 1325q0 -41 16.5 -58.5t52.5 -17.5q39 0 54.5 18t15.5 58t-17 57t-53 17q-39 0 -54 -16.5t-15 -57.5z" />
<glyph unicode="&#xe6;" d="M10 279q0 89 38.5 154t103.5 99t135.5 49t150.5 15h35l6 37l4 26q0 125 -100 125q-42 0 -71 -24t-29 -66q0 -10 4 -26l-219 -41q-15 49 -15 94q0 127 99 211t256 84q158 0 239 -78q93 78 211 78q126 0 201 -55t112 -181.5t39 -343.5v-24h-467q9 -97 52 -139t116 -42 q53 0 117 31t115 82l65 -250q-165 -114 -350 -114q-216 0 -323 202q-105 -202 -283 -202q-109 0 -175.5 79t-66.5 220zM274 297q0 -40 21.5 -65t46.5 -25q77 0 143 110q-6 29 -14 95q-16 2 -49 2q-73 0 -110.5 -27t-37.5 -90zM739 610h209v33q0 80 -24 120t-66 40 q-53 0 -81.5 -46.5t-37.5 -146.5z" />
<glyph unicode="&#xe7;" d="M150 500q0 244 152.5 380t404.5 136q104 0 211.5 -27.5t185.5 -73.5l-107 -276q-54 54 -130.5 84.5t-139.5 30.5q-235 0 -235 -254q0 -65 14.5 -113.5t37 -75.5t56.5 -43t64.5 -21t68.5 -5q65 0 143.5 26.5t135.5 73.5l82 -250q-139 -92 -353 -108l-18 -90 q93 -17 141.5 -66.5t48.5 -122.5q0 -49 -23 -86t-61.5 -57t-81 -29.5t-88.5 -9.5q-49 0 -104.5 12t-87.5 29l49 149q50 -47 111 -47q71 0 71 55q0 69 -137 72l43 191q-75 6 -139.5 25t-123.5 58t-100.5 96t-66 143t-24.5 194z" />
<glyph unicode="&#xe8;" d="M111 504q0 115 40.5 213t109.5 162.5t158 100.5t187 36q109 0 195 -28.5t153 -89.5t103.5 -166.5t36.5 -250.5q0 -44 -2 -69h-646q42 -181 273 -181q66 0 146 31t143 82l82 -250q-107 -59 -207.5 -86.5t-241.5 -27.5q-82 0 -156.5 17.5t-143.5 57t-119.5 99t-80.5 149.5 t-30 201zM348 1321l156 197l291 -291l-107 -125zM440 610h326q6 93 -37.5 137t-112.5 44q-84 0 -125 -41t-51 -140z" />
<glyph unicode="&#xe9;" d="M111 504q0 115 40.5 213t109.5 162.5t158 100.5t187 36q109 0 195 -28.5t153 -89.5t103.5 -166.5t36.5 -250.5q0 -44 -2 -69h-646q42 -181 273 -181q66 0 146 31t143 82l82 -250q-107 -59 -207.5 -86.5t-241.5 -27.5q-82 0 -156.5 17.5t-143.5 57t-119.5 99t-80.5 149.5 t-30 201zM440 610h326q6 93 -37.5 137t-112.5 44q-84 0 -125 -41t-51 -140zM453 1227l290 291l156 -197l-340 -219z" />
<glyph unicode="&#xea;" d="M111 504q0 115 40.5 213t109.5 162.5t158 100.5t187 36q109 0 195 -28.5t153 -89.5t103.5 -166.5t36.5 -250.5q0 -44 -2 -69h-646q42 -181 273 -181q66 0 146 31t143 82l82 -250q-107 -59 -207.5 -86.5t-241.5 -27.5q-82 0 -156.5 17.5t-143.5 57t-119.5 99t-80.5 149.5 t-30 201zM295 1223l285 262h137l262 -260l-143 -131l-195 168l-213 -168zM440 610h326q6 93 -37.5 137t-112.5 44q-84 0 -125 -41t-51 -140z" />
<glyph unicode="&#xeb;" d="M111 504q0 115 40.5 213t109.5 162.5t158 100.5t187 36q109 0 195 -28.5t153 -89.5t103.5 -166.5t36.5 -250.5q0 -44 -2 -69h-646q42 -181 273 -181q66 0 146 31t143 82l82 -250q-107 -59 -207.5 -86.5t-241.5 -27.5q-82 0 -156.5 17.5t-143.5 57t-119.5 99t-80.5 149.5 t-30 201zM291 1268q0 64 45.5 109.5t109.5 45.5q65 0 110.5 -45.5t45.5 -109.5t-46 -110t-110 -46t-109.5 45.5t-45.5 110.5zM440 610h326q6 93 -37.5 137t-112.5 44q-84 0 -125 -41t-51 -140zM684 1268q0 64 45.5 109.5t110.5 45.5q64 0 109.5 -45.5t45.5 -109.5 q0 -65 -45.5 -110.5t-109.5 -45.5t-110 46t-46 110z" />
<glyph unicode="&#xec;" d="M145 0v254h301v477h-301v254h627v-731h311v-254h-938zM293 1321l156 197l290 -291l-106 -125z" />
<glyph unicode="&#xed;" d="M145 0v254h301v477h-301v254h627v-731h311v-254h-938zM410 1227l290 291l156 -197l-340 -219z" />
<glyph unicode="&#xee;" d="M145 0v254h301v477h-301v254h627v-731h311v-254h-938zM264 1223l285 262h137l262 -260l-143 -131l-195 168l-213 -168z" />
<glyph unicode="&#xef;" d="M145 0v254h301v477h-301v254h627v-731h311v-254h-938zM262 1268q0 64 45.5 109.5t110.5 45.5q64 0 109.5 -45.5t45.5 -109.5q0 -65 -45.5 -110.5t-109.5 -45.5t-110 46t-46 110zM655 1268q0 64 45.5 109.5t110.5 45.5t110.5 -45.5t45.5 -109.5t-45.5 -110t-110.5 -46 t-110.5 46t-45.5 110z" />
<glyph unicode="&#xf0;" d="M78 500q0 205 132 337t345 132q39 0 111 -11q-56 65 -142 129l-80 -96l-137 80l82 103q-15 8 -43.5 21t-32.5 15l160 209q65 -33 78 -41l65 82l146 -88l-66 -78q101 -64 177 -134t138 -160t96.5 -203t41.5 -248q0 -8 1 -24.5t1 -24.5q0 -109 -36.5 -203.5t-103.5 -165 t-168.5 -111t-224.5 -40.5q-251 0 -395.5 138.5t-144.5 381.5zM420 502q0 -271 188 -271q118 0 159.5 62t41.5 209q0 103 -29 217q-79 24 -155 24q-115 0 -160 -57t-45 -184z" />
<glyph unicode="&#xf1;" d="M119 0v985h297l6 -145q136 176 356 176q68 0 126 -20t104.5 -60t73 -109.5t26.5 -160.5v-666h-326v561q0 93 -35 126.5t-98 33.5q-53 0 -109.5 -29.5t-95.5 -75.5v-616h-325zM254 1264q46 85 107 128.5t128 43.5q44 0 134 -28t133 -28q74 0 125 62l98 -109 q-40 -75 -109 -123.5t-137 -48.5q-39 0 -125.5 32t-132.5 32q-69 0 -125 -56z" />
<glyph unicode="&#xf2;" d="M78 500q0 221 149 368.5t389 147.5q254 0 394.5 -141.5t140.5 -374.5q0 -109 -36.5 -203.5t-103.5 -165t-168.5 -111t-224.5 -40.5q-251 0 -395.5 138.5t-144.5 381.5zM297 1321l156 197l290 -291l-106 -125zM420 502q0 -271 188 -271q118 0 159.5 62t41.5 209 q0 58 -8.5 102t-30 82t-62.5 58t-100 20q-102 0 -145 -66t-43 -196z" />
<glyph unicode="&#xf3;" d="M78 500q0 221 149 368.5t389 147.5q254 0 394.5 -141.5t140.5 -374.5q0 -109 -36.5 -203.5t-103.5 -165t-168.5 -111t-224.5 -40.5q-251 0 -395.5 138.5t-144.5 381.5zM420 502q0 -271 188 -271q118 0 159.5 62t41.5 209q0 58 -8.5 102t-30 82t-62.5 58t-100 20 q-102 0 -145 -66t-43 -196zM436 1227l291 291l156 -197l-340 -219z" />
<glyph unicode="&#xf4;" d="M78 500q0 221 149 368.5t389 147.5q254 0 394.5 -141.5t140.5 -374.5q0 -109 -36.5 -203.5t-103.5 -165t-168.5 -111t-224.5 -40.5q-251 0 -395.5 138.5t-144.5 381.5zM268 1223l285 262h137l262 -260l-143 -131l-195 168l-213 -168zM420 502q0 -271 188 -271 q118 0 159.5 62t41.5 209q0 58 -8.5 102t-30 82t-62.5 58t-100 20q-102 0 -145 -66t-43 -196z" />
<glyph unicode="&#xf5;" d="M78 500q0 221 149 368.5t389 147.5q254 0 394.5 -141.5t140.5 -374.5q0 -109 -36.5 -203.5t-103.5 -165t-168.5 -111t-224.5 -40.5q-251 0 -395.5 138.5t-144.5 381.5zM250 1264q46 85 107 128.5t128 43.5q44 0 134 -28t133 -28q74 0 125 62l98 -109q-40 -75 -109 -123.5 t-137 -48.5q-39 0 -125.5 32t-132.5 32q-69 0 -125 -56zM420 502q0 -271 188 -271q118 0 159.5 62t41.5 209q0 58 -8.5 102t-30 82t-62.5 58t-100 20q-102 0 -145 -66t-43 -196z" />
<glyph unicode="&#xf6;" d="M78 500q0 221 149 368.5t389 147.5q254 0 394.5 -141.5t140.5 -374.5q0 -109 -36.5 -203.5t-103.5 -165t-168.5 -111t-224.5 -40.5q-251 0 -395.5 138.5t-144.5 381.5zM262 1268q0 64 45.5 109.5t110.5 45.5q64 0 109.5 -45.5t45.5 -109.5q0 -65 -45.5 -110.5 t-109.5 -45.5t-110 46t-46 110zM420 502q0 -271 188 -271q118 0 159.5 62t41.5 209q0 58 -8.5 102t-30 82t-62.5 58t-100 20q-102 0 -145 -66t-43 -196zM655 1268q0 64 45.5 109.5t110.5 45.5t110.5 -45.5t45.5 -109.5t-45.5 -110t-110.5 -46t-110.5 46t-45.5 110z" />
<glyph unicode="&#xf7;" d="M197 465v207h835v-207h-835zM461 231q0 65 45.5 111.5t111.5 46.5q64 0 111 -46.5t47 -111.5q0 -66 -46.5 -111.5t-111.5 -45.5q-66 0 -111.5 45.5t-45.5 111.5zM461 899q0 65 45.5 111.5t111.5 46.5q64 0 111 -46.5t47 -111.5q0 -66 -46.5 -112t-111.5 -46 q-66 0 -111.5 46t-45.5 112z" />
<glyph unicode="&#xf8;" d="M78 500q0 221 149 368.5t389 147.5q154 0 273 -58l47 58h215l-127 -156q127 -136 127 -360q0 -109 -36.5 -203.5t-103.5 -165t-168.5 -111t-224.5 -40.5q-155 0 -274 55l-47 -55h-215l125 153q-129 135 -129 367zM420 502q0 -64 8 -103l283 342q-44 23 -103 23 q-102 0 -145 -66t-43 -196zM520 250q40 -19 88 -19q118 0 159.5 62t41.5 209q0 46 -6 90z" />
<glyph unicode="&#xf9;" d="M123 330v655h326v-571q0 -96 30.5 -130t83.5 -34q52 0 112 37.5t105 91.5v606h326v-985h-287l-16 156q-136 -176 -350 -176q-330 0 -330 350zM324 1321l155 197l291 -291l-106 -125z" />
<glyph unicode="&#xfa;" d="M123 330v655h326v-571q0 -96 30.5 -130t83.5 -34q52 0 112 37.5t105 91.5v606h326v-985h-287l-16 156q-136 -176 -350 -176q-330 0 -330 350zM434 1227l291 291l156 -197l-340 -219z" />
<glyph unicode="&#xfb;" d="M123 330v655h326v-571q0 -96 30.5 -130t83.5 -34q52 0 112 37.5t105 91.5v606h326v-985h-287l-16 156q-136 -176 -350 -176q-330 0 -330 350zM274 1223l285 262h137l262 -260l-143 -131l-194 168l-213 -168z" />
<glyph unicode="&#xfc;" d="M123 330v655h326v-571q0 -96 30.5 -130t83.5 -34q52 0 112 37.5t105 91.5v606h326v-985h-287l-16 156q-136 -176 -350 -176q-330 0 -330 350zM283 1268q0 64 45.5 109.5t109.5 45.5q65 0 110.5 -45.5t45.5 -109.5t-46 -110t-110 -46t-109.5 45.5t-45.5 110.5zM676 1268 q0 64 45 109.5t110 45.5t110.5 -45.5t45.5 -109.5t-45.5 -110t-110.5 -46q-64 0 -109.5 45.5t-45.5 110.5z" />
<glyph unicode="&#xfd;" d="M86 985h354l187 -668l186 668h328l-494 -1436h-325l122 371zM453 1227l290 291l156 -197l-340 -219z" />
<glyph unicode="&#xfe;" d="M102 -451v1854h326v-553q46 74 130 120t165 46q193 0 298 -131.5t105 -366.5q0 -250 -149 -394t-387 -144q-62 0 -162 14v-445h-326zM428 274q53 -36 141 -36q98 0 156.5 62.5t58.5 182.5q0 132 -42.5 189t-127.5 57q-52 0 -101 -29.5t-85 -76.5v-349z" />
<glyph unicode="&#xff;" d="M86 985h354l187 -668l186 668h328l-494 -1436h-325l122 371zM291 1268q0 64 45.5 109.5t109.5 45.5q65 0 110.5 -45.5t45.5 -109.5t-46 -110t-110 -46t-109.5 45.5t-45.5 110.5zM684 1268q0 64 45.5 109.5t110.5 45.5q64 0 109.5 -45.5t45.5 -109.5q0 -65 -45.5 -110.5 t-109.5 -45.5t-110 46t-46 110z" />
<glyph unicode="&#x152;" d="M33 651q0 108 7.5 192t26 167t53 142t86 105.5t127.5 69.5t175 23q58 0 123 -19h565v-268h-299v-252h242v-266h-242v-273h297v-272h-571q-68 -20 -113 -20q-114 0 -196.5 28.5t-136.5 80.5t-86 136.5t-45 186t-13 239.5zM385 651q0 -77 1 -124t5 -99t12.5 -81t22 -54.5 t34.5 -36t50 -10.5q49 0 78 14v803q-39 20 -80 20q-74 0 -98.5 -91t-24.5 -341z" />
<glyph unicode="&#x153;" d="M14 500q0 242 96 379t271 137q166 0 268 -121q98 121 234 121q63 0 112 -14.5t91 -51.5t69.5 -96.5t43 -153t15.5 -219.5q0 -44 -2 -69h-444q15 -98 58 -148.5t102 -50.5q89 0 192 86l90 -205q-61 -57 -130.5 -85.5t-170.5 -28.5q-164 0 -266 122q-106 -122 -260 -122 q-181 0 -275 131t-94 389zM260 502q0 -147 27.5 -219t99.5 -72q76 0 104.5 71t28.5 220q0 61 -4.5 105.5t-18 88t-41.5 66t-71 22.5q-71 0 -98 -72.5t-27 -209.5zM764 610h215q4 98 -19.5 149.5t-68.5 51.5q-60 0 -89.5 -48t-37.5 -153z" />
<glyph unicode="&#x178;" d="M27 1331h356l254 -545l235 545h330l-416 -805v-526h-329v516zM262 1593q0 65 46 110.5t110 45.5t109.5 -45.5t45.5 -110.5t-45.5 -110t-109.5 -45q-65 0 -110.5 45.5t-45.5 109.5zM696 1593q0 65 46 110.5t110 45.5t110 -45.5t46 -110.5q0 -64 -45.5 -109.5t-110.5 -45.5 t-110.5 45.5t-45.5 109.5z" />
<glyph unicode="&#x2c6;" d="M272 1223l285 262h137l262 -260l-143 -131l-195 168l-212 -168z" />
<glyph unicode="&#x2dc;" d="M252 1264q46 85 107 128.5t128 43.5q44 0 134 -28t133 -28q74 0 125 62l98 -109q-40 -75 -109 -123.5t-137 -48.5q-39 0 -125.5 32t-132.5 32q-69 0 -125 -56z" />
<glyph unicode="&#x2000;" horiz-adv-x="915" />
<glyph unicode="&#x2001;" horiz-adv-x="1831" />
<glyph unicode="&#x2002;" horiz-adv-x="915" />
<glyph unicode="&#x2003;" horiz-adv-x="1831" />
<glyph unicode="&#x2004;" horiz-adv-x="610" />
<glyph unicode="&#x2005;" horiz-adv-x="457" />
<glyph unicode="&#x2006;" horiz-adv-x="305" />
<glyph unicode="&#x2007;" horiz-adv-x="305" />
<glyph unicode="&#x2008;" horiz-adv-x="228" />
<glyph unicode="&#x2009;" horiz-adv-x="366" />
<glyph unicode="&#x200a;" horiz-adv-x="101" />
<glyph unicode="&#x2010;" d="M322 383v264h585v-264h-585z" />
<glyph unicode="&#x2011;" d="M322 383v264h585v-264h-585z" />
<glyph unicode="&#x2012;" d="M322 383v264h585v-264h-585z" />
<glyph unicode="&#x2013;" d="M164 412v219h901v-219h-901z" />
<glyph unicode="&#x2014;" d="M0 412v219h1229v-219h-1229z" />
<glyph unicode="&#x2018;" d="M403 762q0 147 68 340t154 301l198 -64q-129 -211 -129 -577h-291z" />
<glyph unicode="&#x2019;" d="M403 825q129 211 129 578h291q0 -147 -67.5 -340.5t-153.5 -300.5z" />
<glyph unicode="&#x201a;" d="M403 -301q129 211 129 577h291q0 -147 -67.5 -340.5t-153.5 -300.5z" />
<glyph unicode="&#x201c;" d="M199 762q0 147 67.5 340.5t153.5 300.5l198 -64q-129 -211 -129 -577h-290zM610 762q0 147 67.5 340.5t153.5 300.5l199 -64q-129 -211 -129 -577h-291z" />
<glyph unicode="&#x201d;" d="M199 825q129 211 129 578h290q0 -147 -67.5 -340.5t-153.5 -300.5zM610 825q129 211 129 578h291q0 -147 -67.5 -340.5t-153.5 -300.5z" />
<glyph unicode="&#x201e;" d="M199 -301q129 211 129 577h290q0 -147 -67.5 -340.5t-153.5 -300.5zM610 -301q129 211 129 577h291q0 -147 -67.5 -340.5t-153.5 -300.5z" />
<glyph unicode="&#x2022;" d="M367 551q0 103 71.5 175.5t173.5 72.5q103 0 175.5 -72.5t72.5 -175.5t-72.5 -174.5t-175.5 -71.5t-174 71.5t-71 174.5z" />
<glyph unicode="&#x2026;" d="M72 147q0 81 45.5 125.5t124.5 44.5q78 0 125 -42.5t47 -127.5q0 -170 -172 -170q-170 0 -170 170zM442 147q0 81 45.5 125.5t124.5 44.5q78 0 125 -42.5t47 -127.5q0 -170 -172 -170q-170 0 -170 170zM813 147q0 81 45.5 125.5t124.5 44.5q78 0 125 -42.5t47 -127.5 q0 -170 -172 -170q-170 0 -170 170z" />
<glyph unicode="&#x202f;" horiz-adv-x="366" />
<glyph unicode="&#x2039;" d="M344 479l285 473h254l-203 -467l203 -479h-254z" />
<glyph unicode="&#x203a;" d="M344 6l203 479l-203 467h252l287 -473l-287 -473h-252z" />
<glyph unicode="&#x205f;" horiz-adv-x="457" />
<glyph unicode="&#x20ac;" d="M27 379l20 217h139q-2 20 -2 66v45h-137l21 217h151q61 203 216.5 314.5t371.5 111.5q180 0 364 -93l-96 -258q-150 86 -268 86q-165 0 -232 -161h390l-23 -217h-407v-39q0 -49 2 -72h395l-21 -217h-313q79 -135 242 -135q132 0 280 88l80 -254q-110 -59 -200.5 -78.5 t-217.5 -19.5q-216 0 -359 102t-202 297h-194z" />
<glyph unicode="&#x2122;" d="M35 1167v166h391v-166h-109v-622h-174v622h-108zM455 545v788h209l77 -272l90 -318l93 328l77 262h195v-788h-166v416l-51 -203l-57 -213h-185l-61 209l-72 239v-448h-149z" />
<glyph unicode="&#x25fc;" horiz-adv-x="983" d="M0 0v983h983v-983h-983z" />
</font>
</defs>
</svg>
